Лев Вожеватов - Захват внимания девушки (2012)

Ответить на тему
 
Автор Сообщение

Yulya ®

Лев Вожеватов | Захват внимания девушки (2012) HDRip [H.264/720p-LQ] - Автор (режиссер): Лев Вожеватов
Жанр: Пикап, Соблазнение
Описание:
С каждым днём знакомится в общественных местах всё сложнее. Либо пикаперы “выжигают” территорию своими неадекватными приставаниями, либо девушки одев наушники и черные очки, со взглядом в пол перебежками пересекают расстояние от точки А до точки В.
Или ещё хуже при любом подходе к понравившейся девушке на тебя сразу пялиться целая толпа зевак. Если ничего не менять то придется тебе и дальше цеплять девчонок с сайтов знакомств и вконтакте.
Но есть решение этой проблемы специально для тебя я разработал приемы захвата внимания в общественных местах, которые помогут тебе как бы случайно знакомится не вызывая отрицательных эмоций ни у девушки, ни у окружающих людей. Мой более 6тний опыт позволил мне вложить самые передовые знания в этот продукт.
На вебинаре я раскрываю секретные техники, фишки по манипуляции и уже полюбившиеся методы захвата внимания от Вожеватова.
Продолжительность: 02:06:16
Качество видео: HDRip
Видео: AVC/H.264, 1280х720, ~1148 Kbps
Аудио: AAC, 2 ch, 152 Kbps, VBR

Mediainfo:

Код:
General
Complete name                            : C:\Torrents\Лев Вожеватов - Захват внимания (2012).mp4
Format                                   : MPEG-4
Format profile                           : Base Media / Version 2
Codec ID                                 : mp42
File size                                : 1.15 GiB
Duration                                 : 2h 6mn
Overall bit rate mode                    : Variable
Overall bit rate                         : 1 302 Kbps
Encoded date                             : UTC 2012-03-14 10:00:42
Tagged date                              : UTC 2012-03-14 10:00:42
gsst                                     : 0
gstd                                     : 7576531
gssd                                     : B4A7DDAC6MH1331806279362591
gshh                                     : o-o.preferred.fra07t11.v6.cache7.c.youtube.com
Video
ID                                       : 1
Format                                   : AVC
Format/Info                              : Advanced Video Codec
Format profile                           : High@L3.1
Format settings, CABAC                   : Yes
Format settings, ReFrames                : 1 frame
Format settings, GOP                     : M=1, N=30
Codec ID                                 : avc1
Codec ID/Info                            : Advanced Video Coding
Duration                                 : 2h 6mn
Bit rate                                 : 1 148 Kbps
Maximum bit rate                         : 2 029 Kbps
Width                                    : 1 280 pixels
Height                                   : 720 pixels
Display aspect ratio                     : 16:9
Frame rate mode                          : Constant
Frame rate                               : 29.970 fps
Color space                              : YUV
Chroma subsampling                       : 4:2:0
Bit depth                                : 8 bits
Scan type                                : Progressive
Bits/(Pixel*Frame)                       : 0.042
Stream size                              : 1.01 GiB (88%)
Encoded date                             : UTC 1970-01-01 00:00:00
Tagged date                              : UTC 2012-03-14 10:02:19
Audio
ID                                       : 2
Format                                   : AAC
Format/Info                              : Advanced Audio Codec
Format profile                           : LC
Codec ID                                 : 40
Duration                                 : 2h 6mn
Bit rate mode                            : Variable
Bit rate                                 : 152 Kbps
Maximum bit rate                         : 196 Kbps
Channel(s)                               : 2 channels
Channel positions                        : Front: L R
Sampling rate                            : 44.1 KHz
Compression mode                         : Lossy
Stream size                              : 137 MiB (12%)
Title                                    : IsoMedia File Produced by Google, 5-11-2011
Encoded date                             : UTC 2012-03-14 10:01:35
Tagged date                              : UTC 2012-03-14 10:02:19

Дополнительная информация:

А также!
«Липкий Взгляд»: уникальная техника захвата внимания девушки. 9 парней из 10 делают ошибки уже в тот момент, когда они впервые посмотрели на девушку. Они совершают одну главную ошибку, которую можно легко избежать, если знать эту уникальную технику.
«Магазинный Соблазнитель»: техники успешного знакомства в торговых центрах и магазинах. Многие парни, знакомясь в магазине, подходят «в лоб». Но нужно быть более хитрым. У меня есть простая и эффективная техника, которая лежит на поверхности. И её всё равно никто не использует. Почему – непонятно.
«Вопрошайка»: уникальный способ знакомства, с использованием окружающей обстановки. Сегодня девушки уже пресыщены знакомствами на улицах, посылая парней при первых намёках на знакомство. Метод «Вопрошайка» – это проход по флангу, гениальный обходной манёвр и удар в тыл. Пусть другие парни идут напролом, пожелаем им удачи. А для тебя я лице «Вопрошайки» я приготовил неоспоримое преимущество в борьбе за лучших девушек.
«Взгляд Мазками»: не смотри на девушку как баран на новые ворота! 9 из 10 парней смотрят на девушку как нищий смотрит на кошелёк. К чёрту это! Я приготовил для тебя уникальную технику «Взгляд Мазками», которая прицепит внимание девушки к тебе.
«Метросъём»: как взять телефон без слов? «Привет, давай обменяемся контактами» – сколько раз ты ещё намерен произносить эту фразу, получая в ответ «У меня есть парень/я занята»? Метросъём – это целая технология, благодаря которой телефон девушки для тебя станет обычным делом. Безо всякого напряжения и унижения с твоей стороны.
и многое другое
Скачать .torrent

Для того, чтобы скачать торрент-файл

Лев Вожеватов - Захват внимания девушки (2012)

с нашего сайта, Вам необходимо Войти на сайт под своим логином! Если у Вас ещё нет логина, тогда Вам нужно сначала Зарегистрироваться!

Как скачивать? · Что такое торрент? · Рейтинг и ограничения

Показать сообщения:    
Ответить на тему

Лев Вожеватов - Захват внимания девушки (2012) скачать торрент (torrent), видеоуроки, тренинги, обучающее видео и видеокурсы

Текущее время: Сегодня 00:04

Часовой пояс: GMT + 4



Вы не можете начинать темы
Вы не можете отвечать на сообщения
Вы не можете редактировать свои сообщения
Вы не можете удалять свои сообщения
Вы не можете голосовать в опросах
Вы не можете прикреплять файлы к сообщениям
Вы не можете скачивать файлы