MonsterLessons - Интернет-магазин на React/Redux (2017)

Ответить на тему
 
Автор Сообщение

Yulya ®

MonsterLessons | Интернет-магазин на React/Redux (2017) PCRec [H.264/720p-LQ]- Автор (режиссер): MonsterLessons
Жанр: Redux, React, Веб-программирование
Описание:
В этой серии мы с вами напишем интернет-магазин от начала и до конца используя React и Redux.
Чему вы научитесь:
- Структурировать и конфигурировать проект
- Писать хороший код в React и Redux на реальном проекте
- Создавать переиспользуемые селекторы и компоненты
- Отделять работу с данными от екшенов
- Использовать библиотеку Ramda для удобной работы с данными
- Получать данные от API
Продолжительность: 02:42:09
Качество видео: PCRec
Видео: AVC/H.264, 1280x720, ~999 Kbps
Аудио: AAC, 2 ch, 242 Kbps

Mediainfo:

General
Complete name : .\[MonsterLessons] Интернет-магазин на React+Redux (2017)\0\Интернет-магазин на ReactRedux.mp4
Format : MPEG-4
Format profile : Base Media / Version 2
Codec ID : mp42 (isom/iso2/avc1/mp41)
File size : 28.1 MiB
Duration : 3 min 9 s
Overall bit rate mode : Variable
Overall bit rate : 1 245 kb/s
Encoded date : UTC 2017-06-12 14:40:08
Tagged date : UTC 2017-06-12 14:41:31
Video
ID : 1
Format : AVC
Format/Info : Advanced Video Codec
Format profile : Main@L3.1
Format settings, CABAC : Yes
Format settings, ReFrames : 5 frames
Codec ID : avc1
Codec ID/Info : Advanced Video Coding
Duration : 3 min 9 s
Bit rate : 999 kb/s
Width : 1 280 pixels
Height : 720 pixels
Display aspect ratio : 16:9
Frame rate mode : Constant
Frame rate : 30.000 FPS
Color space : YUV
Chroma subsampling : 4:2:0
Bit depth : 8 bits
Scan type : Progressive
Bits/(Pixel*Frame) : 0.036
Stream size : 22.6 MiB (80%)
Encoded date : UTC 2017-06-12 14:40:08
Tagged date : UTC 2017-06-12 14:41:30
Color primaries : BT.709
Transfer characteristics : BT.709
Matrix coefficients : BT.709
Audio
ID : 2
Format : AAC
Format/Info : Advanced Audio Codec
Format profile : LC
Codec ID : 40
Duration : 3 min 9 s
Bit rate mode : Variable
Bit rate : 242 kb/s
Maximum bit rate : 293 kb/s
Channel(s) : 2 channels
Channel positions : Front: L R
Sampling rate : 44.1 kHz
Frame rate : 43.066 FPS (1024 spf)
Compression mode : Lossy
Stream size : 5.46 MiB (19%)
Encoded date : UTC 2017-06-12 14:40:08
Tagged date : UTC 2017-06-12 14:40:17

Дополнительная информация:

Необходимые знания
- Javascript
- React
- Redux
Для кого этот курс
- Для всех, кто уже немного разобрался с React и Redux, но хочет реализовать реальный проект от начала и до конца и понять, как все работает.
Скриншоты:
Скачать .torrent

Для того, чтобы скачать торрент-файл

MonsterLessons - Интернет-магазин на React/Redux (2017)

с нашего сайта, Вам необходимо Войти на сайт под своим логином! Если у Вас ещё нет логина, тогда Вам нужно сначала Зарегистрироваться!

Как скачивать? · Что такое торрент? · Рейтинг и ограничения

Показать сообщения:    
Ответить на тему

MonsterLessons - Интернет-магазин на React/Redux (2017) скачать торрент (torrent), видеоуроки, тренинги, обучающее видео и видеокурсы

Текущее время: Сегодня 07:50

Часовой пояс: GMT + 4



Вы не можете начинать темы
Вы не можете отвечать на сообщения
Вы не можете редактировать свои сообщения
Вы не можете удалять свои сообщения
Вы не можете голосовать в опросах
Вы не можете прикреплять файлы к сообщениям
Вы не можете скачивать файлы