Александр Бажанов - [CBS] Visual Studio 2012 Tips & Tricks (2014)

Ответить на тему
 
Автор Сообщение

Yulya ®

-Александр Бажанов - [CBS] Visual Studio 2012 Tips & Tricks (2014)- Автор (режиссер): Александр Бажанов
Жанр: Обучающие курсы
Продолжительность: 43:54
Качество видео: WEB-DL
Видеокодек: MPEG-4
Битрейт видео: ~2084 kb/s, 30 FPS
Размер кадра: 1280 x 888
Аудиокодек: AAC
Битрейт аудио: 157 kb/s, 2 Ch , 44 Hz
Описание:
Visual Studio 2012 - основной инструмент современного разработчика. Продуктивность разработчика сильно зависит от того, насколько он хорошо знает возможности IDE, с которым работает. Зная комбинации клавиш, специальные функции, окна и настройки, вы можете быстрее решать поставленные перед вами задачи. Каждый раз, когда вы используете мышь для того, что бы запустить определенную задачу в Visual Studio, вы тратите драгоценное время.

Дополнительная информация:

Любую операцию можно выполнить с помощью комбинации клавиш. Пройдя этот короткий курс, вы узнаете много полезных трюков с Visual Studio, которые повысят Вашу продуктивность.

Содержание урока:

• Настройка и особенности стартовой страницы (Start Page) в Visual Studio
• Новое в Visual Studio 2012
• Работа с окнами и организация документов.
• Поиск
• Настройки и новые функции Solution Explorer
• Навигация по проекту
• Настройки Intellisense и новые функции
• Редактор кода.
• Автогенерация кода и Smart Tag
• Отладка
• Веб ресурсы связанные с Visual Studio.

Предварительные требования

TestProvider Знание основ программирования с использованием Visual Studio.
Целевая аудитория
Разработчики и начинающие программисты.

По завершению курса Вы сможете:

- Знать самые важные комбинации клавиш.
- Конфигурировать Visual Studio.
- Использовать возможности Visual Studio для генерации кода.
- Писать код быстрее.
- Повысить свою продуктивность.

MediaInfo:

General
Полное имя : F:\Торренты\[CBS]Visual Studio 2012 Tips & Tricks_nnm-club.me\Video_nnm-club.me.mp4
Формат : MPEG-4
Профиль формата : Base Media / Version 2
Идентификатор кодека : mp42
Размер файла : 655 MiB
Продолжительность : 43mn 54s
Режим общего битрейта : Variable
Общий поток : 2 087 Kbps
Дата кодирования : UTC 2014-05-18 10:17:30
Дата пометки : UTC 2014-05-18 10:17:30
Video
Идентификатор : 1
Формат : AVC
Формат/Информация : Advanced Video Codec
Профиль формата : [url=mailto:Main@L3.2]Main@L3.2[/url]
Параметр CABAC формата : Yes
Параметр ReFrames формата : 3 frames
Идентификатор кодека : avc1
Идентификатор кодека/Информация : Advanced Video Coding
Продолжительность : 43mn 54s
Продолжительность оригинала : 43mn 54s
Битрейт : 1 927 Kbps
Ширина : 1 280 pixels
Высота : 888 pixels
Соотношение сторон : 1.441
Режим частоты кадров : Variable
Частота кадров : 30.000 fps
Минимальная частота кадров : 30.000 fps
Максимальная частота кадров : 30.030 fps
Стандарт вещания : NTSC
Цветовое пространство : YUV
Субдискретизация насыщенности : 4:2:0
Битовая глубина : 8 bits
Тип развёртки : Progressive
Бит/(Пиксели*Кадры) : 0.057
Размер потока : 605 MiB (92%)
Размер потока оригинала : 605 MiB (92%)
Язык : English
Дата кодирования : UTC 2014-05-18 10:17:31
Дата пометки : UTC 2014-05-18 10:17:31
mdhd_Duration : 2634667
Audio
Идентификатор : 2
Формат : AAC
Формат/Информация : Advanced Audio Codec
Профиль формата : LC
Идентификатор кодека : 40
Продолжительность : 43mn 54s
Продолжительность оригинала : 43mn 54s
Вид битрейта : Variable
Битрейт : 158 Kbps
Максимальный битрейт : 526 Kbps
Каналы : 2 channels
Расположение каналов : Front: L R
Частота : 44.1 KHz
Метод сжатия : Lossy
Размер потока : 49.5 MiB (8%)
Размер потока оригинала : 49.5 MiB (8%)
Язык : English
Дата кодирования : UTC 2014-05-18 10:17:31
Дата пометки : UTC 2014-05-18 10:17:31
mdhd_Duration : 2634699
Скриншоты:
Скачать .torrent

Для того, чтобы скачать торрент-файл

Александр Бажанов - [CBS] Visual Studio 2012 Tips & Tricks (2014)

с нашего сайта, Вам необходимо Войти на сайт под своим логином! Если у Вас ещё нет логина, тогда Вам нужно сначала Зарегистрироваться!

Как скачивать? · Что такое торрент? · Рейтинг и ограничения

Vofka

А второй части этого семинара нету?
Показать сообщения:    
Ответить на тему

Александр Бажанов - [CBS] Visual Studio 2012 Tips & Tricks (2014) скачать торрент (torrent), видеоуроки, тренинги, обучающее видео и видеокурсы

Текущее время: Сегодня 06:25

Часовой пояс: GMT + 4



Вы не можете начинать темы
Вы не можете отвечать на сообщения
Вы не можете редактировать свои сообщения
Вы не можете удалять свои сообщения
Вы не можете голосовать в опросах
Вы не можете прикреплять файлы к сообщениям
Вы не можете скачивать файлы