Дмитрий Морозов - IPcamMaster - Профессиональное видеонаблюдение своими руками (2014)

Ответить на тему
 
Автор Сообщение

Yulya ®

-Дмитрий Морозов - IPcamMaster - Профессиональное видеонаблюдение своими руками (2014)- Автор (режиссер): Дмитрий Морозов
Жанр: Обучение
Продолжительность: 40:00:00
Качество видео: DVD5
Видеокодек: MP4
Битрейт видео: ~94 kb/s
Размер кадра: 1280 x 720
Аудиокодек: AAC
Битрейт аудио: ~97 kb/s
Описание:
Энциклопедия по созданию современной системы видеонаблюдения своими руками

Дополнительная информация:

Вводный урок
1) О видеонаблюдении
2) Выбор и покупка оборудования
3) Монтаж IP-камер
4) Подключение и настройка роутера
5) Теоретический раздел настройки IP-камер
6) Практический раздел настройки IP-камер
7) Сборка видеосервера
8) Установка и настройка системного ПО ведеосервера
9) Установка и настройка ПО виденаблюдения сервера
10) Видеонаблюдение через мобильные устройства
Итоговый урок

отчет MEDIAINFO:

Формат : MPEG-4
Профиль формата : Base Media / Version 2
Идентификатор кодека : mp42
Режим общего битрейта : Переменный
Общий поток : 2997 Кбит/сек
Исполнитель : Dmitriy Morozov
Дата кодирования : UTC 2014-03-04 15:26:03
Дата пометки : UTC 2014-03-04 15:26:03
Видео
Идентификатор : 1
Формат : AVC
Формат/Информация : Advanced Video Codec
Профиль формата : [url=mailto:Baseline@L3.1]Baseline@L3.1[/url]
Параметр CABAC формата : Нет
Параметр ReFrames формата : 3 кадра
Идентификатор кодека : avc1
Идентификатор кодека/Информация : Advanced Video Coding
Продолжительность : 56 с.
Битрейт : 2918 Кбит/сек
Ширина : 1280 пикселей
Высота : 720 пикселей
Соотношение сторон : 16:9
Режим частоты кадров : Постоянный
Частота кадров : 25,000 кадров/сек
Стандарт вещания : PAL
Цветовое пространство : YUV
Субдискретизация насыщенности : 4:2:0
Битовая глубина : 8 бит
Тип развёртки : Прогрессивная
Бит/(Пиксели*Кадры) : 0.127
Размер потока : 19,5 Мбайт (97%)
Дата кодирования : UTC 2014-03-04 15:26:03
Дата пометки : UTC 2014-03-04 15:26:03
Аудио
Идентификатор : 2
Формат : AAC
Формат/Информация : Advanced Audio Codec
Профиль формата : LC
Идентификатор кодека : 40
Продолжительность : 56 с.
Продолжительность оригинала : 56 с.
Вид битрейта : Переменный
Битрейт : 77,5 Кбит/сек
Максимальный битрейт : 212 Кбит/сек
Каналы : 2 канала
Расположение каналов : Front: L R
Частота : 44,1 КГц
Метод сжатия : С потерями
Размер потока : 531 Кбайт (3%)
Размер потока оригинала : 531 Кбайт (3%)
Дата кодирования : UTC 2014-03-04 15:26:03
Дата пометки : UTC 2014-03-04 15:26:03
mdhd_Duration : 56146
Скриншоты:

Скачать .torrent

Для того, чтобы скачать торрент-файл

Дмитрий Морозов - IPcamMaster - Профессиональное видеонаблюдение своими руками (2014)

с нашего сайта, Вам необходимо Войти на сайт под своим логином! Если у Вас ещё нет логина, тогда Вам нужно сначала Зарегистрироваться!

Как скачивать? · Что такое торрент? · Рейтинг и ограничения

Показать сообщения:    
Ответить на тему

Дмитрий Морозов - IPcamMaster - Профессиональное видеонаблюдение своими руками (2014) скачать торрент (torrent), видеоуроки, тренинги, обучающее видео и видеокурсы

Текущее время: Сегодня 16:41

Часовой пояс: GMT + 4



Вы не можете начинать темы
Вы не можете отвечать на сообщения
Вы не можете редактировать свои сообщения
Вы не можете удалять свои сообщения
Вы не можете голосовать в опросах
Вы не можете прикреплять файлы к сообщениям
Вы не можете скачивать файлы