Максим Соколов - КопиМастер Landing Page – Adobe Muse (2013)

Ответить на тему
 
Автор Сообщение

Yulya ®

-Максим Соколов - КопиМастер Landing Page – Adobe Muse (2013)- Автор (режиссер): Максим Соколов
Жанр: Обучающие видеуроки
Продолжительность: 01:44:04
Качество видео: PCRec
Видеокодек: MPEG4 (AVC)
Битрейт видео: ~164 Kbps
Размер кадра: 1024х768
Аудиокодек: AAC
Битрейт аудио: 53.3 Kbps, 2 ch
Описание:
Вы пройдете обучение по программе Adobe Muse. Данная программа создана для визуального создания сайтов премиум класса. Вы сможете использовать такие передовые эффекты как «слайдеры», «parallax», «видеобоксы», «лайтбоксы», создавать любые контактные формы без сторонних сервисов и многое другое.

Содержание:

1. Установка программы Adobe Musee
В уроке подробно разобран этап установки приложения Creative Cloud и последующая установка программы Adobe Muse.
2. Определение исходника
Из данного урока вы научитесь определять качество сайта, который подлежит копированию. Какой тип графики используется и возможно ли использовать в качестве патернов.
3. Сбор и фиксация цветов
Для успешного переноса сайта необходимо изначально собрать цветовую гамму и зафиксировать в палитре. Это позволит в последствии легко видоизменять сайт под другие типы товаров или услуг.
4. Перенос фонов
Как переносить фоновые рисунки с возможностью “резинового” сайта. То есть при изменении разрешения сайта будет происходить подстройка фона.
5. Буллиты
Одно из преимуществ буллитов – это акцентирование внимания на определеных этапах текста.
6. Слайдшоу, тени
После данного урока вы с легкостью сможете создавать разные виды слайдшоу с несколькими типами прокрутки изображения. А так же научитесь использовать эффекты тени.
7. Иконки, замена цвета
В данном уроке вы научитесь быстро находить необходимые вам для инфографики иконки и менять на необходимый цвет без графических редакторов.
8. Формы обратной связи
В уроке вы научитесь создавать формы обратной связи с разным количеством полей. Настраивать отправку на необходимые адреса электронной почты без сторонних сервисов.
9. Бесшовные паттерны
Поймете что такое бесшовный паттерн и научитесь собирать разные виды бэграундов с возможностью “резинового” сайта.
10. Интерактивный блок отзывов
С использованием слайдера научитесь собирать интерактивный блок отзывов. Данный вид в данный момент очень популярен и добавляет сайту динамичности.
11. Видео лайтбокс
Все больше набирают популярность видео боксы, которые совмещены между собой слайдерами. Вы научитесь формировать такие передовые виджеты. Готовый набор получите с курсом в подарок.
12. Подвал, карта Google Map
Основы работы с нижними колонтитулами и размещение интерактивной карты Google Map. Прямо на сайте посетитель сможет управлять картой и осуществлять перемещение.
13. Parallax эффект
Как не странно, но еще мало кто использует Parralax. Это новый вид эффектов, которые работают при скролинге (перемещению) по страницу вверх-ввниз.
14. Статистика
В данном уроке вы научитесь регистрировать сайт для статистки, формировать разные типы кодов и интегрировать их на сайт.
15. Свойства сайта и SEO
Настройка свойств сайта с его параметрами, процедура сбора ключевиков и установка их на сайт.
16. Кнопка “Заказать звонок”
Создание всплывающего лайтбокса с формой обратной связи.
17. Использование якорей
Вы не раз видели использование меню с плавной прокруткой до определенного места. Именно такой эффект с использованием якорей вы научитесь делать.
18. Быстрое создание фотографий в овале.
Как не прибегая к графическим редакторам быстро создать идеальные фотографии в овале.
19. Два способа закачки сайта на FTP

MediaInfo:

General
Complete name : 8 Создание слайдшоу и установка тени.mp4
Format : MPEG-4
Format profile : Base Media / Version 2
Codec ID : mp42
File size : 11.8 MiB
Duration : 7mn 29s
Overall bit rate : 220 Kbps
Encoded date : UTC 2014-01-24 10:23:32
Tagged date : UTC 2014-01-24 10:23:32
Video
ID : 1
Format : AVC
Format/Info : Advanced Video Codec
Format profile : [url=mailto:High@L3.1]High@L3.1[/url]
Format settings, CABAC : Yes
Format settings, ReFrames : 4 frames
Codec ID : avc1
Codec ID/Info : Advanced Video Coding
Duration : 7mn 29s
Bit rate mode : Variable
Bit rate : 164 Kbps
Width : 1 024 pixels
Height : 768 pixels
Display aspect ratio : 4:3
Frame rate mode : Constant
Frame rate : 15.000 fps
Color space : YUV
Chroma subsampling : 4:2:0
Bit depth : 8 bits
Scan type : Progressive
Bits/(Pixel*Frame) : 0.014
Stream size : 8.80 MiB (75%)
Language : English
Encoded date : UTC 2014-01-24 10:23:32
Tagged date : UTC 2014-01-24 10:23:32
Color primaries : BT.709-5, BT.1361, IEC 61966-2-4, SMPTE RP177
Transfer characteristics : BT.709-5, BT.1361
Matrix coefficients : BT.709-5, BT.1361, IEC 61966-2-4 709, SMPTE RP177
Audio
ID : 2
Format : AAC
Format/Info : Advanced Audio Codec
Format profile : LC
Codec ID : 40
Duration : 7mn 29s
Bit rate mode : Constant
Bit rate : 53.3 Kbps
Channel(s) : 2 channels
Channel positions : Front: L R
Sampling rate : 44.1 KHz
Compression mode : Lossy
Stream size : 2.86 MiB (24%)
Language : English
Encoded date : UTC 2014-01-24 10:23:32
Tagged date : UTC 2014-01-24 10:23:32
Скачать .torrent

Для того, чтобы скачать торрент-файл

Максим Соколов - КопиМастер Landing Page – Adobe Muse (2013)

с нашего сайта, Вам необходимо Войти на сайт под своим логином! Если у Вас ещё нет логина, тогда Вам нужно сначала Зарегистрироваться!

Как скачивать? · Что такое торрент? · Рейтинг и ограничения

ana.crestoff

подскажите, пожалуйста, я при попытке экспортировать html не нахожу компонента index. что это может быть за ошибка?

Dadoo

Обучился по этому курсу делать лендинги на Muse. Всё доходчиво и по шагам преподнесено. Пару штук сделал для себя лендингов. Получилось красиво и функционально. Рекомендую, особенно для тех кто не профи, а лендинг нужен.
Показать сообщения:    
Ответить на тему

Максим Соколов - КопиМастер Landing Page – Adobe Muse (2013) скачать торрент (torrent), видеоуроки, тренинги, обучающее видео и видеокурсы

Текущее время: Сегодня 23:44

Часовой пояс: GMT + 4



Вы не можете начинать темы
Вы не можете отвечать на сообщения
Вы не можете редактировать свои сообщения
Вы не можете удалять свои сообщения
Вы не можете голосовать в опросах
Вы не можете прикреплять файлы к сообщениям
Вы не можете скачивать файлы