Брендон Родес - Всех уток разом [PyCon US] (2014)

Ответить на тему
 
Автор Сообщение

Yulya ®

-Брендон Родес - Всех уток разом [PyCon US] (2014)- Автор: Brandon Rhodes
Жанр: Программирование
Продолжительность: 00:31:45
Качество видео: HDTV
Видеокодек: DivX
Битрейт видео: ~1863 kb/s, 30.000 FPS
Размер кадра: 1280x720
Аудиокодек: MP3
Битрейт аудио: 128 kb/s (CBR), 2 ch, 44100 Hz
Описание:
Брендон Родес - известный докладчик, автор книг и организатор встреч, посвященных Питону, астроном-любитель, занимающийся разработкой на Питоне с 1997 года.
В этом докладе с конференции PyCon 2014, проходившей в апреле, Брендон обзорно расскажет о приципах функционирования наиболее часто используемых структур данных и приёмах обращения с ними, а также о том, почему в Питоне нет некоторых структур и о том, какая структура данных в Питоне является самой опасной.

MediaInfo

General
Complete name : /home/shared/idle/py/PyCon2014-All_Your_Ducks_In_A_Row-Rhodes.avi
Format : AVI
Format/Info : Audio Video Interleave
File size : 423 MiB
Duration : 31mn 45s
Overall bit rate : 1 863 Kbps
Writing library : VirtualDub build 32842/release
Video
ID : 0
Format : MPEG-4 Visual
Codec ID : DIV3
Codec ID/Hint : DivX 3 Low
Duration : 31mn 45s
Bit rate : 1 723 Kbps
Width : 1 280 pixels
Height : 720 pixels
Display aspect ratio : 16:9
Frame rate : 30.000 fps
Color space : YUV
Chroma subsampling : 4:2:0
Bit depth : 8 bits
Compression mode : Lossy
Bits/(Pixel*Frame) : 0.062
Stream size : 391 MiB (93%)
Audio
ID : 1
Format : MPEG Audio
Format version : Version 1
Format profile : Layer 3
Mode : Joint stereo
Mode extension : MS Stereo
Codec ID : 55
Codec ID/Hint : MP3
Duration : 31mn 45s
Bit rate mode : Constant
Bit rate : 128 Kbps
Channel(s) : 2 channels
Sampling rate : 44.1 KHz
Compression mode : Lossy
Stream size : 29.0 MiB (7%)
Alignment : Split accross interleaves
Interleave, duration : 33 ms (1.00 video frame)
Interleave, preload duration : 501 ms
Скриншоты:
Скачать .torrent

Для того, чтобы скачать торрент-файл

Брендон Родес - Всех уток разом [PyCon US] (2014)

с нашего сайта, Вам необходимо Войти на сайт под своим логином! Если у Вас ещё нет логина, тогда Вам нужно сначала Зарегистрироваться!

Как скачивать? · Что такое торрент? · Рейтинг и ограничения

Показать сообщения:    
Ответить на тему

Брендон Родес - Всех уток разом [PyCon US] (2014) скачать торрент (torrent), видеоуроки, тренинги, обучающее видео и видеокурсы

Текущее время: Сегодня 04:03

Часовой пояс: GMT + 4



Вы не можете начинать темы
Вы не можете отвечать на сообщения
Вы не можете редактировать свои сообщения
Вы не можете удалять свои сообщения
Вы не можете голосовать в опросах
Вы не можете прикреплять файлы к сообщениям
Вы не можете скачивать файлы