Digital-Tutors - Видеокурсы по компьютерной графике 3DS MAX, Mudbox, Animator's Survival Kit на Русском Языке (2014)

Ответить на тему
 
Автор Сообщение

Yulya ®

-Digital-Tutors - Видеокурсы по компьютерной графике 3DS MAX, Mudbox, Animator's Survival Kit на Русском Языке (2014) - Автор (издатель): Digital-Tutors
Авторы переводов: Alex_Cg, AndreyAid
Жанр: 3D моделирование
Язык: Русский
Описание:
Переводы 11 видеоукурсов от Digital-Tutors по программам для 3D моделирования 3ds max, Mudbox, Animator's Survival Kit.

Digital Tutors - 12 Principles of Animation in 3ds Max

Файлы примеров: есть
Продолжительность: 2:36:00
Формат видео: MP4
Видео: H.264, 782x646, 700 kb/sec, 15fps
Аудио: AAC, 48 KHz, 60 kb/sec

Digital Tutors - Exploring Animation Principles in 3ds Max 2011 Collection

Файлы примеров: есть
Продолжительность: 5:38:00 (отсутствует перевод к папке Climbing a Wall )
Формат видео: MP4
Видео: H.264, 782x646, 700 kb/sec, 15fps
Аудио: AAC, 48 KHz, 60-125 kb/sec

Digital Tutors - Animation Blocking Techniques in 3ds Max

Файлы примеров: есть
Продолжительность: 1:30:44
Формат видео: MP4
Видео: H.264, 1280x720, 500 kb/sec, 15fps
Аудио: AAC, 48 KHz, 125 kb/sec

Digital Tutors - Animation Polishing Techniques in 3ds Max

Файлы примеров: есть
Продолжительность: 01:00:00
Формат видео: MP4
Видео: H.264, 1280x720, 500 kb/sec, 15fps
Аудио: AAC, 48 KHz, 125 kb/sec

Digital-Tutors - Creating Run Cycles in 3ds Max

Файлы примеров: есть
Продолжительность: 02:05:00
Формат видео: MP4
Видео: H.264, 1280x720, 500 kb/sec, 15fps
Аудио: AAC, 48 KHz, 125 kb/sec

Digital Tutors - Character Interaction in 3ds Max (добавлен 22.01.2014)

Файлы примеров: есть
Продолжительность: 05:02:00
Формат видео: MP4
Видео: H.264, 1280x720, 700 kb/sec, 15fps
Аудио: AAC, 48 KHz, 125 kb/sec

Lynda.com - Mudbox 2013 Essential Training (добавлен 31.01.2014)

Файлы примеров: есть
Продолжительность: 04:14:00
Формат видео: MP4
Видео: H.264, 960x540, 200-500 kb/sec, 15fps
Аудио: AAC, 48 KHz, 125 kb/sec

Digital Tutors - Animating with Props in 3ds Max (Добавлен 19.02.2014)

Файлы примеров: есть
Продолжительность: 00:42:00
Формат видео: MP4
Видео: H.264, 1280x720, 400-700 kb/sec, 15fps
Аудио: AAC, 48 KHz, 125 kb/sec

Digital Tutors - Character Modeling Concepts in 3ds Max (добавлен 19.02.2014)

Файлы примеров: есть
Продолжительность: 06:11:00
Формат видео: MP4
Видео: H.264, 1280x720, 400-700 kb/sec, 15fps
Аудио: AAC, 48 KHz, 125 kb/sec

Digital Tutors - Introduction to Rigging in 3ds Max (добавлен 20.03.2014)

Файлы примеров: есть
Продолжительность: 04:06:00
Формат видео: MP4
Видео: H.264, 1280x720, 500-800 kb/sec, 15fps
Аудио: AAC, 48 KHz, 125 kb/sec

Richard Williams - Animator's Survival Kit (добавлен 20.03.2014)

Файлы примеров: нету
Продолжительность: 09:32:33
Формат видео: MP4
Видео: H.264, 720x480, 800-1000 kb/sec, 29,97fps
Аудио: AAC, 48 KHz, 125 kb/sec

MediaInfo:

F:\Переводы видеоуроков 3ds max, Mudbox, Animator's Survival Kit\DT - 12 Principles of Animation\1. Introduction and Project Overview.mp4
General
Complete name : F:\Переводы видеоуроков 3ds max, Mudbox, Animator's Survival Kit\DT - 12 Principles of Animation\1. Introduction and Project Overview.mp4
Format : MPEG-4
Codec ID : M4V
File size : 6.27 MiB
Duration : 1mn 9s
Overall bit rate mode : Variable
Overall bit rate : 762 Kbps
Encoded date : UTC 2013-11-19 16:54:11
Tagged date : UTC 2013-11-19 16:54:11
©TIM : 00;00;00;00
Video #1
ID : 1
Format : AVC
Format/Info : Advanced Video Codec
Format profile : [url=mailto:Main@L3.1]Main@L3.1[/url]
Format settings, CABAC : No
Format settings, ReFrames : 2 frames
Format settings, GOP : M=1, N=33
Codec ID : avc1
Codec ID/Info : Advanced Video Coding
Duration : 1mn 9s
Bit rate mode : Variable
Bit rate : 697 Kbps
Width : 782 pixels
Height : 646 pixels
Display aspect ratio : 1.211
Frame rate mode : Constant
Frame rate : 15.000 fps
Standard : NTSC
Color space : YUV
Chroma subsampling : 4:2:0
Bit depth : 8 bits
Scan type : Progressive
Bits/(Pixel*Frame) : 0.092
Stream size : 5.74 MiB (92%)
Language : English
Encoded date : UTC 2013-11-19 16:54:11
Tagged date : UTC 2013-11-19 16:54:11
Audio #2
ID : 2
Format : AAC
Format/Info : Advanced Audio Codec
Format profile : LC
Codec ID : 40
Duration : 1mn 9s
Source duration : 1mn 9s
Bit rate mode : Variable
Bit rate : 61.4 Kbps
Maximum bit rate : 112 Kbps
Channel(s) : 2 channels
Channel positions : Front: L R
Sampling rate : 48.0 KHz
Compression mode : Lossy
Stream size : 518 KiB (8%)
Source stream size : 518 KiB (8%)
Language : English
Encoded date : UTC 2013-11-19 16:54:11
Tagged date : UTC 2013-11-19 16:54:11

От автора

Можно ли изучать компьютерную графику не зная английского языка? "Нет, нельзя" - ответит профессионал .. "Ща проверим" - отвечу я..
Вообщем, у меня возникла идея организовать переводы тех видеокурсов которые покажутся мне наиболее интересными. Решил вот поделится со всеми тем, что уже было сделано и быть может кому-то это тоже будет полезно.. Работа проделана неидеально конечно, но тем кто не знает английского данный вариант изучения подойдёт гораздо лучше, чем смотреть эти же курсы, но без перевода..
В перспективе думаю, что будет переведено ещё немало курсов, раздача будет обновляться, но денег на это не всегда хватает (естесственно), поэтому если у кого есть желание оказать финансовую поддержку данному делу, свяжитесь со мной в личных сообщениях, будет неплохо...
Скриншоты:
Скачать .torrent

Для того, чтобы скачать торрент-файл

Digital-Tutors - Видеокурсы по компьютерной графике 3DS MAX, Mudbox, Animator's Survival Kit на Русском Языке (2014)

с нашего сайта, Вам необходимо Войти на сайт под своим логином! Если у Вас ещё нет логина, тогда Вам нужно сначала Зарегистрироваться!

Как скачивать? · Что такое торрент? · Рейтинг и ограничения

Показать сообщения:    
Ответить на тему

Digital-Tutors - Видеокурсы по компьютерной графике 3DS MAX, Mudbox, Animator's Survival Kit на Русском Языке (2014) скачать торрент (torrent), видеоуроки, тренинги, обучающее видео и видеокурсы

Текущее время: Сегодня 05:56

Часовой пояс: GMT + 4



Вы не можете начинать темы
Вы не можете отвечать на сообщения
Вы не можете редактировать свои сообщения
Вы не можете удалять свои сообщения
Вы не можете голосовать в опросах
Вы не можете прикреплять файлы к сообщениям
Вы не можете скачивать файлы