Юрий Шатохин - Linux Ubuntu и Mint Росинка вводная для начинающих (2014)

Ответить на тему
 
Автор Сообщение

Yulya ®

-Юрий Шатохин - Linux Ubuntu и Mint Росинка вводная для начинающих (2014)- Автор (режиссер): Юрий Шатохин
Жанр: Обучающие видеуроки
Продолжительность: 00:23:17
Качество видео: PCRec
Видеокодек: MPEG-PS
Битрейт видео: ~2 321 Kbps
Размер кадра: 1280х720
Аудиокодек: MP2
Битрейт аудио: 192 Kbps, 2 ch
Описание:
Linux Ubuntu и Mint Росинка для Начинающих, привыкших к Windows
Все начинающие пользователи слышали и знают о бесплатной альтернативе Windows - Операционной Системе Linux. Кто не решился потратить своё время на установку Linux , предлагаю посмотреть обзор в котором показана работа двух Linux - систем : Linux Ubuntu 12.4 и Linux Mint 11 Росинка

MediaInfo:

General
Format : MPEG-PS
File size : 427 MiB
Duration : 23mn 17s
Overall bit rate : 2 564 Kbps
Video
ID : 224 (0xE0)
Format : MPEG Video
Format version : Version 2
Format profile : Main@Main
Format settings, BVOP : Yes
Format settings, Matrix : Default
Format settings, GOP : M=3, N=15
Duration : 23mn 17s
Bit rate mode : Variable
Bit rate : 2 321 Kbps
Nominal bit rate : 2 519 Mbps
Width : 1 280 pixels
Height : 720 pixels
Display aspect ratio : 16:9
Frame rate : 29.970 fps
Color space : YUV
Chroma subsampling : 4:2:0
Bit depth : 8 bits
Scan type : Progressive
Compression mode : Lossy
Bits/(Pixel*Frame) : 0.084
Stream size : 387 MiB (91%)
Audio
ID : 192 (0xC0)
Format : MPEG Audio
Format version : Version 1
Format profile : Layer 2
Duration : 23mn 17s
Bit rate mode : Constant
Bit rate : 192 Kbps
Channel(s) : 2 channels
Sampling rate : 48.0 KHz
Compression mode : Lossy
Delay relative to video : 7ms
Stream size : 32.0 MiB (7%)
Скачать .torrent

Для того, чтобы скачать торрент-файл

Юрий Шатохин - Linux Ubuntu и Mint Росинка вводная для начинающих (2014)

с нашего сайта, Вам необходимо Войти на сайт под своим логином! Если у Вас ещё нет логина, тогда Вам нужно сначала Зарегистрироваться!

Как скачивать? · Что такое торрент? · Рейтинг и ограничения

alenko49

donvital

Большое Спасибо!
Показать сообщения:    
Ответить на тему

Юрий Шатохин - Linux Ubuntu и Mint Росинка вводная для начинающих (2014) скачать торрент (torrent), видеоуроки, тренинги, обучающее видео и видеокурсы

Текущее время: Сегодня 10:55

Часовой пояс: GMT + 4



Вы не можете начинать темы
Вы не можете отвечать на сообщения
Вы не можете редактировать свои сообщения
Вы не можете удалять свои сообщения
Вы не можете голосовать в опросах
Вы не можете прикреплять файлы к сообщениям
Вы не можете скачивать файлы