CyberBionic Systematics - Вебинар "Как стать хорошим программистом" (2014)

Ответить на тему
 
Автор Сообщение

Yulya ®

-CyberBionic Systematics - Вебинар "Как стать хорошим программистом" (2014)- Автор (режиссер): CyberBionic Systematics
Сайт производителя edu.cbsystematics.com
Жанр: Вебинар
Продолжительность: 01:06:00
Качество видео: DVDRip
Видеокодек: AVC1/H.264
Битрейт видео: ~50 Kbps
Размер кадра: 1280*720
Аудиокодек: AAC
Битрейт аудио: 44,100 Hz, 2 Ch, 16 bits, 1411 Kbps
Описание:
Запись вебинара от 6.03.14.
Провел вебинар Владимир Савинов - тренер учебного центра CyberBionic Systematics, .NET разработчик, эксперт в области веб-ориентированных приложений и баз данных.
Программа вебинара:
Как организована работа программистов в IT компаниях
Как складывается карьера хорошего программиста
Какие направления разработки сейчас наиболее актуальны и востребованы
Какие нужно предпринимать шаги, чтобы стать хорошим программистом

MediaInfo

Формат : MPEG-4
Профиль формата : Base Media / Version 2
Идентификатор кодека : mp42
Размер файла : 116 Мбайт
Продолжительность : 1 ч. 6 м.
Режим общего битрейта : Переменный
Общий поток : 243 Кбит/сек
Дата кодирования : UTC 2014-03-10 17:09:49
Дата пометки : UTC 2014-03-10 17:09:49
Видео
Идентификатор : 1
Формат : AVC
Формат/Информация : Advanced Video Codec
Профиль формата : [url=mailto:Main@L3.1]Main@L3.1[/url]
Параметр CABAC формата : Да
Параметр ReFrames формата : 3 кадра
Идентификатор кодека : avc1
Идентификатор кодека/Информация : Advanced Video Coding
Продолжительность : 1 ч. 6 м.
Продолжительность оригинала : 1 ч. 6 м.
Вид битрейта : Переменный
Битрейт : 114 Кбит/сек
Ширина : 1280 пикселей
Высота : 720 пикселей
Соотношение сторон : 16:9
Режим частоты кадров : Переменный
Частота кадров : 30,000 кадров/сек
Минимальная частота кадров : 30,000 кадров/сек
Максимальная частота кадров : 30,030 кадров/сек
Стандарт вещания : NTSC
Цветовое пространство : YUV
Субдискретизация насыщенности : 4:2:0
Битовая глубина : 8 бит
Тип развёртки : Прогрессивная
Бит/(Пиксели*Кадры) : 0.004
Размер потока : 54,5 Мбайт (47%)
Размер потока оригинала : 54,5 Мбайт (47%)
Язык : English
Дата кодирования : UTC 2014-03-10 17:09:49
Дата пометки : UTC 2014-03-10 17:09:49
mdhd_Duration : 3997367
Аудио
Идентификатор : 2
Формат : AAC
Формат/Информация : Advanced Audio Codec
Профиль формата : LC
Идентификатор кодека : 40
Продолжительность : 1 ч. 6 м.
Продолжительность оригинала : 1 ч. 6 м.
Вид битрейта : Переменный
Битрейт : 126 Кбит/сек
Максимальный битрейт : 212 Кбит/сек
Каналы : 2 канала
Расположение каналов : Front: L R
Частота : 44,1 КГц
Метод сжатия : С потерями
Размер потока : 59,9 Мбайт (52%)
Размер потока оригинала : 59,9 Мбайт (52%)
Язык : English
Дата кодирования : UTC 2014-03-10 17:09:49
Дата пометки : UTC 2014-03-10 17:09:49
mdhd_Duration : 3997408
Скриншоты:
Скачать .torrent

Для того, чтобы скачать торрент-файл

CyberBionic Systematics - Вебинар "Как стать хорошим программистом" (2014)

с нашего сайта, Вам необходимо Войти на сайт под своим логином! Если у Вас ещё нет логина, тогда Вам нужно сначала Зарегистрироваться!

Как скачивать? · Что такое торрент? · Рейтинг и ограничения

Показать сообщения:    
Ответить на тему

CyberBionic Systematics - Вебинар "Как стать хорошим программистом" (2014) скачать торрент (torrent), видеоуроки, тренинги, обучающее видео и видеокурсы

Текущее время: Сегодня 05:59

Часовой пояс: GMT + 4



Вы не можете начинать темы
Вы не можете отвечать на сообщения
Вы не можете редактировать свои сообщения
Вы не можете удалять свои сообщения
Вы не можете голосовать в опросах
Вы не можете прикреплять файлы к сообщениям
Вы не можете скачивать файлы