RusTuts.com - Весь процесс создания аудиорекламы (2013)

Ответить на тему
 
Автор Сообщение

Yulya ®

-RusTuts.com - Весь процесс создания аудиорекламы (2013)- Автор (режиссер): RusTuts.com
Жанр: Звукорежиссура
Язык: Русский
Продолжительность: 03:15:00
Качество видео: PCRec
Видеокодек: AVC/H.264
Битрейт видео: 1 565 Кбит/сек (CBR), 30.000 кадра/сек
Размер кадра: 1680x1050, 1.600
Аудиокодек: AAC
Битрейт аудио: 384 Кбит/сек, (CBR), 2 канала, 32.0 КГц
Описание: Научиться создавать аудиорекламу, которую примут в эфир на радио и тв — вполне реально.
Но только с правильной информацией вы сможете:
1) Вы сможете создавать ролики, которые можно ротировать на радио и телевидении.
2) Обрабатывать абсолютно любой голос для аудиорекламы как и мужской так и женский и его разновидности.
3) Грамотно выбрать музыкальную подложку.

Дополнительная информация:

4) Вам не нужно будет тратить время на нахождения аналогов данного материала, потому что его нигде нет!
5) Вы откроете для себя новые спецэффекты которые нужно применять для аудиорекламы.
6) Вы легко сможете определять баланс уровня громкости который нужен в аудиорекламе.
7) Вы узнаете про европейские и американские рекомендации по громкости эфира.
8) Вы узнаете как работать с диктором при записи.
9) Вы узнаете как получить первый заказ.
10) Узнаете об основных этапах создания аудиорекламы
11) Не будете допускать элементарных ошибок при обработке дикторского голоса.
12) Все объясняется и показывается на реальных примерах, что позволяет поэтапно повторить на вашей аудиорекламе и получить отличный результат.
13) Вы наконец поймете как создается аудиореклама! Загляните на кухню этой индустрии!
14) Этот курс уберет все ваши барьеры в производстве аудиорекламы!
15) Все действия и обработки можно производить абсолютно в любом секвенсоре
16) Вы откроете для себя новую нишу в сфере заработка, занимаясь вашим любимым делом

Содержание курса:

Раздел 1. Введение
Трудности при выборе голоса диктора
Нюансы работы с диктором во время записи
Советы по компоновке и редактированию материала
Где найти подходящую музыкальную подложку
Раздел 2. Саунд-дизайн для аудиорекламы
Краткий обзор спецэффектов
Эффект развернутой реверберации
Обыкновенный дилей
Демонический эффект
Фленджер
Голос робота
Искусственный голос
Креативный дилей
Эффект дабл треков
Как процесс записи влияет на качество результата
Раздел 3. Обработка голоса диктора и мастеринг аудиорекламы
Краткий обзор обработок
Характерная эквализация
Последовательная и параллельная компрессия голоса
Многополосная динамическая обработка
Особенности баланса музыкальной подложки и голоса
Мастеринг
Высокий мужской голос
Высокий женский голос
Низкий женский голос
Раздел 4. Примеры обработки голосов знаменитых дикторов
Пример №1
Пример №2
Пример №3

MediaInfo:

General
Complete name : D:\Сведение\RusTuts.com - Весь процесс создания аудиорекламы\AudioAdvertising\Razdeli-Kursa\2-Razdel-Saund-dizajn-dlja-audioreklamy\2.001-Kratkij-obzor-specjeffektov.hup
Format : AVI
Format/Info : Audio Video Interleave
File size : 65.8 MiB
Duration : 4mn 41s
Overall bit rate : 1 959 Kbps
Video
ID : 0
Format : AVC
Format/Info : Advanced Video Codec
Format profile : [url=mailto:High@L5.1]High@L5.1[/url]
Format settings, CABAC : Yes
Format settings, ReFrames : 16 frames
Codec ID : AVC1
Duration : 4mn 41s
Bit rate : 1 565 Kbps
Width : 1 680 pixels
Height : 1 050 pixels
Display aspect ratio : 1.600
Frame rate : 30.000 fps
Color space : YUV
Chroma subsampling : 4:2:0
Bit depth : 8 bits
Scan type : Progressive
Bits/(Pixel*Frame) : 0.030
Stream size : 52.6 MiB (80%)
Writing library : x264 core 130 r2274bm c832fe9
Encoding settings : cabac=1 / ref=16 / deblock=1:0:0 / analyse=0x3:0x133 / me=umh / subme=9 / psy=1 / psy_rd=1.00:0.00 / mixed_ref=1 / me_range=24 / chroma_me=1 / trellis=2 / 8x8dct=1 / cqm=0 / deadzone=21,11 / fast_pskip=1 / chroma_qp_offset=-2 / threads=9 / lookahead_threads=1 / sliced_threads=0 / nr=0 / decimate=1 / interlaced=0 / bluray_compat=0 / constrained_intra=0 / bframes=8 / b_pyramid=2 / b_adapt=2 / b_bias=0 / direct=3 / weightb=1 / open_gop=0 / weightp=2 / keyint=250 / keyint_min=25 / scenecut=40 / intra_refresh=0 / rc=cqp / mbtree=0 / qp=1 / ip_ratio=1.40 / pb_ratio=1.30 / aq=0
Audio
ID : 1
Format : AC-3
Format/Info : Audio Coding 3
Mode extension : CM (complete main)
Codec ID : 2000
Duration : 4mn 41s
Bit rate mode : Constant
Bit rate : 384 Kbps
Channel(s) : 2 channels
Channel positions : Front: L R
Sampling rate : 32.0 KHz
Bit depth : 16 bits
Stream size : 12.9 MiB (20%)
Alignment : Aligned on interleaves
Interleave, duration : 48 ms (1.44 video frame)
Interleave, preload duration : 528 ms
Скачать .torrent

Для того, чтобы скачать торрент-файл

RusTuts.com - Весь процесс создания аудиорекламы (2013)

с нашего сайта, Вам необходимо Войти на сайт под своим логином! Если у Вас ещё нет логина, тогда Вам нужно сначала Зарегистрироваться!

Как скачивать? · Что такое торрент? · Рейтинг и ограничения

Показать сообщения:    
Ответить на тему

RusTuts.com - Весь процесс создания аудиорекламы (2013) скачать торрент (torrent), видеоуроки, тренинги, обучающее видео и видеокурсы

Текущее время: Сегодня 06:26

Часовой пояс: GMT + 4



Вы не можете начинать темы
Вы не можете отвечать на сообщения
Вы не можете редактировать свои сообщения
Вы не можете удалять свои сообщения
Вы не можете голосовать в опросах
Вы не можете прикреплять файлы к сообщениям
Вы не можете скачивать файлы