Олег Накрошаев - Как начать работать в фотошопе (2014)

Ответить на тему
 
Автор Сообщение

Yulya ®

-Олег Накрошаев - Как начать работать в фотошопе (2014)- Автор (режиссер): Олег Накрошаев
Жанр: Skype-консультация
Продолжительность: 00:58:58
Качество видео: PCRec
Видеокодек: AVC
Битрейт видео: ~10fps 581kbps
Размер кадра: 1280x720
Аудиокодек: AAC
Битрейт аудио: 44100Hz stereo 191kbps
Описание:
Skype-консультация в видеоформате "Как начать работать в фотошопе" предназначена для пользователей делающих первые шаги в освоении программы Photoshop.

Дополнительная информация:

Рассмотрены следующие вопросы:
интерфейс фотошопа, вкладки и окна в фотошопе
3 способа открытия фотографии, как открыть сразу несколько файлов в фотошопе
строка меню, где найти команды фотошопа
панель инструментов, группы инструментов фотошопа
палитры, доки, как найти нужную палитру (меню "Окно")
параметры настройки инструментов
кнопка "Упорядочить документы"
расположение фото в рабочем пространстве фотошопа, перемещение между вкладками
осветление и затемнение всей фотографии
создание дубликатов слоёв
режимы наложения слоёв, группы режимов наложения
режимы для осветления и затемнения фотографии
включение и отключение видимости слоёв
непрозрачность слоя
маска слоя
активность маски слоя
окно "Палитра цветов (Основной цвет)"
цвета переднего и заднего планов
выбор нужной кисти для работы
восстановление инструментов в исходное состояние
работа с маской слоя
как вернуть часть снимка в исходное состояние после осветления или затемнения фотографии
что такое жёсткость кисти и как правильно её использовать при коррекции фотографии
палитра "История"
отмена действий в фотошопе
передвижение по палитре "История" с помощью горячих клавиш
как отменить неправильные действия кисти при работе с маской слоя
инструмент "Красные глаза"
инструмент "Точечная восстанавливающая кисть" для ретуши портретов
как правильно и в каком формате сохранить фото после работы в фотошопе
объединение слоёв
настройки окна "Параметры JPEG"
палитра "Навигатор"
увеличение и уменьшение масштаба фото

MI

Общее
Полное имя : D:\Андрей\Как начать работать в фотошопе.mp4
Формат : MPEG-4
Профиль формата : Base Media / Version 2
Идентификатор кодека : mp42
Размер файла : 323 Мбайт
Продолжительность : 58 м.
Режим общего битрейта : Переменный
Общий поток : 775 Кбит/сек
Дата кодирования : UTC 2014-01-01 07:24:16
Дата пометки : UTC 2014-01-01 07:24:16
gsst : 0
gstd : 3489378
gssd : B53AEC646HH1390712878489865
gshh : r3---sn-c5niuxaxjvh-045e.googlevideo.com
Видео
Идентификатор : 1
Формат : AVC
Формат/Информация : Advanced Video Codec
Профиль формата : [url=mailto:High@L3.1]High@L3.1[/url]
Параметр CABAC формата : Да
Параметр ReFrames формата : 1 кадр
Параметр GOP формата : M=1, N=50
Идентификатор кодека : avc1
Идентификатор кодека/Информация : Advanced Video Coding
Продолжительность : 58 м.
Битрейт : 581 Кбит/сек
Максимальный битрейт : 7021 Кбит/сек
Ширина : 1280 пикселей
Высота : 720 пикселей
Соотношение сторон : 16:9
Режим частоты кадров : Постоянный
Частота кадров : 10,000 кадров/сек
Цветовое пространство : YUV
Субдискретизация насыщенности : 4:2:0
Битовая глубина : 8 бит
Тип развёртки : Прогрессивная
Бит/(Пиксели*Кадры) : 0.063
Размер потока : 242 Мбайт (75%)
Дата пометки : UTC 2014-01-01 07:24:49
Аудио
Идентификатор : 2
Формат : AAC
Формат/Информация : Advanced Audio Codec
Профиль формата : LC
Идентификатор кодека : 40
Продолжительность : 58 м.
Вид битрейта : Переменный
Битрейт : 191 Кбит/сек
Максимальный битрейт : 201 Кбит/сек
Каналы : 2 канала
Расположение каналов : Front: L R
Частота : 44,1 КГц
Метод сжатия : С потерями
Размер потока : 79,9 Мбайт (25%)
Заголовок : IsoMedia File Produced by Google, 5-11-2011
Дата кодирования : UTC 2014-01-01 07:24:35
Дата пометки : UTC 2014-01-01 07:24:49
Скриншоты:
Скачать .torrent

Для того, чтобы скачать торрент-файл

Олег Накрошаев - Как начать работать в фотошопе (2014)

с нашего сайта, Вам необходимо Войти на сайт под своим логином! Если у Вас ещё нет логина, тогда Вам нужно сначала Зарегистрироваться!

Как скачивать? · Что такое торрент? · Рейтинг и ограничения

Показать сообщения:    
Ответить на тему

Олег Накрошаев - Как начать работать в фотошопе (2014) скачать торрент (torrent), видеоуроки, тренинги, обучающее видео и видеокурсы

Текущее время: Сегодня 22:13

Часовой пояс: GMT + 4



Вы не можете начинать темы
Вы не можете отвечать на сообщения
Вы не можете редактировать свои сообщения
Вы не можете удалять свои сообщения
Вы не можете голосовать в опросах
Вы не можете прикреплять файлы к сообщениям
Вы не можете скачивать файлы