RusTuts.com - iZotope INSIGHT. Сведение и мастеринг под микроскопом (2013)

Ответить на тему
 
Автор Сообщение

Yulya ®

-RusTuts.com - iZotope INSIGHT. Сведение и мастеринг под микроскопом (2013)- Автор (режиссер): RusTuts.com
Жанр: Работа со звуком
Язык: Русский
Продолжительность: 01:30:54
Качество видео: PCRec
Видеокодек: AVC/H.264
Битрейт видео: ~819 Кбит/сек, 24,000 кадра/сек
Размер кадра: 1300x732, 16:9
Аудиокодек: AAC
Битрейт аудио: ~126 Кбит/сек, 2 канала, 44,1 КГц
Описание: INSIGHT предоставляет полный набор инструментов для анализа и измерения основных параметров аудио. Он идеально подходит для визуального отображения изменений характеристик звукового сигнала, происходящих в процессах сведения и мастеринга.
INSIGHT – это идеальный инструмент для поиска и устранения ошибок в проблематичных миксах, с возможностью проверки соответствия микса, над которым Вы работаете, с коммерческими миксами. INSIGHT, способный на полную настройку и детальное масштабирование, предоставляет вам возможность визуального контроля над всей соответствующей информацией Вашего микса в простом виде. INSIGHT включает в себя следующие модули: измеритель громкости, двухмерную и трехмерную спектрограмму, спектральный анализатор, вектороскоп, многоканальный сюрраундскоп и график истории громкости. INSIGHT позволяет вам внимательно следить за всем, что происходит в миксе, не только с помощью слуха, но и зрения.

Содержание:

01. Озарение
02. 7 основных функций
03. Общие принципы использования
04. Измерители уровня True Peak: K-System и RMS
05. Измерители громкости по ITU-R BS.1770
06. В чем различие между LU и LUFS
07. График истории громкости
08. Вектороскоп
09. Индикатор баланса и коррелометр
10. Surround Scope
11. 2D и 3D спектрограммы
12. Использование iZotope Meter Tap
13. Спектральный анализатор
14. Запись автоматизации
15. Меню управления предустановками
16. Оптимизация производительности
17. Общие настройки
18. Настройки измерителей уровня и громкости
19. Настройки модуля звукового поля
20. Настройки спектрограммы
21. Настройки спектрального анализатора
22. 3D обнаружение частотных конфликтов
23. Спектральный анализ mid/side составляющих
24. Коммерческая громкость и динамика миксов
25. 3D баланс по розовому шуму
26. Практическое использование предустановок
27. Заключение

MediaInfo:

Общее
Полное имя : E:\Раздачи\RusTuts.com - iZotope INSIGHT\02. Семь основных функций.mp4
Формат : MPEG-4
Профиль формата : Base Media / Version 2
Идентификатор кодека : mp42
Размер файла : 22,3 Мбайт
Продолжительность : 3 м. 17 с.
Режим общего битрейта : Переменный
Общий поток : 947 Кбит/сек
Дата кодирования : UTC 2013-12-07 10:20:58
Дата пометки : UTC 2013-12-07 10:20:58
Видео
Идентификатор : 1
Формат : AVC
Формат/Информация : Advanced Video Codec
Профиль формата : [url=mailto:Baseline@L3.2]Baseline@L3.2[/url]
Параметр CABAC формата : Нет
Параметр ReFrames формата : 3 кадра
Идентификатор кодека : avc1
Идентификатор кодека/Информация : Advanced Video Coding
Продолжительность : 3 м. 17 с.
Продолжительность оригинала : 3 м. 17 с.
Вид битрейта : Переменный
Битрейт : 819 Кбит/сек
Ширина : 1300 пикселей
Высота : 732 пикселя
Соотношение сторон : 16:9
Режим частоты кадров : Переменный
Частота кадров : 24,000 кадра/сек
Минимальная частота кадров : 24,000 кадра/сек
Максимальная частота кадров : 24,024 кадра/сек
Цветовое пространство : YUV
Субдискретизация насыщенности : 4:2:0
Битовая глубина : 8 бит
Тип развёртки : Прогрессивная
Бит/(Пиксели*Кадры) : 0.036
Размер потока : 19,3 Мбайт (86%)
Размер потока оригинала : 19,3 Мбайт (86%)
Язык : English
Дата кодирования : UTC 2013-12-07 10:20:58
Дата пометки : UTC 2013-12-07 10:20:58
mdhd_Duration : 197375
Аудио
Идентификатор : 2
Формат : AAC
Формат/Информация : Advanced Audio Codec
Профиль формата : LC
Идентификатор кодека : 40
Продолжительность : 3 м. 17 с.
Продолжительность оригинала : 3 м. 17 с.
Вид битрейта : Переменный
Битрейт : 126 Кбит/сек
Максимальный битрейт : 217 Кбит/сек
Каналы : 2 канала
Расположение каналов : Front: L R
Частота : 44,1 КГц
Метод сжатия : С потерями
Размер потока : 2,96 Мбайт (13%)
Размер потока оригинала : 2,96 Мбайт (13%)
Язык : English
Дата кодирования : UTC 2013-12-07 10:20:58
Дата пометки : UTC 2013-12-07 10:20:58
mdhd_Duration : 197393
Скриншоты:

Время раздачи: C 10:00 до 24:00
Скачать .torrent

Для того, чтобы скачать торрент-файл

RusTuts.com - iZotope INSIGHT. Сведение и мастеринг под микроскопом (2013)

с нашего сайта, Вам необходимо Войти на сайт под своим логином! Если у Вас ещё нет логина, тогда Вам нужно сначала Зарегистрироваться!

Как скачивать? · Что такое торрент? · Рейтинг и ограничения

wincents

Спасибочки автору...именно этого не хватало..Просто класс )))))
Показать сообщения:    
Ответить на тему

RusTuts.com - iZotope INSIGHT. Сведение и мастеринг под микроскопом (2013) скачать торрент (torrent), видеоуроки, тренинги, обучающее видео и видеокурсы

Текущее время: Сегодня 05:57

Часовой пояс: GMT + 4



Вы не можете начинать темы
Вы не можете отвечать на сообщения
Вы не можете редактировать свои сообщения
Вы не можете удалять свои сообщения
Вы не можете голосовать в опросах
Вы не можете прикреплять файлы к сообщениям
Вы не можете скачивать файлы