Евгений Попов - Новогодний онлайн-тренинг по созданию сайта (2014)

Ответить на тему
 
Автор Сообщение

Yulya ®

-Евгений Попов - Новогодний онлайн-тренинг по созданию сайта (2014)- Автор (режиссер): Евгений Попов
Жанр: Онлайн-тренинг
Продолжительность: 05:12:06
Качество видео: PCRec
Видеокодек: AVC
Битрейт видео: ~455kbps 30fps
Размер кадра: 1280x720
Аудиокодек: AAC
Битрейт аудио: 44100Hz stereo 192kbps
Доп. материалы: Есть
Описание:
Для тех, кто не любит много отдыхать, да еще и хочет в новом году завести себе современный сайт, Евгений Попов провел свой бесплатный новогодний онлайн-тренинг, который прошел с 3 по 10 января. За эти дни он провел пять занятий. К концу последнего у вас уже будет готовый современный и безопасный сайт на движке WordPress.
После изучения тренинга у вас будет полностью функциональный, безопасный и быстрый сайт, который лежит на хостинге и имеет собственное доменное имя!

Дополнительная информация:

Программа:
Занятие №1
Шаг 1. Зарегистрировать домен
Шаг 2. Заказать тестовый период хостинга
Шаг 3. Привязать хостинг к домену
Шаг 4. Установить WordPress на хостинг
Шаг 5. Научиться закачивать файлы на хостинг
Шаг 6. Создать почтовые ящики для сайта
Факультативно:
Начать изучать HTML и CSS
Занятие №2
Шаг 1. Наполнить сайт контентом
Шаг 2. Создать несколько страниц на своем сайте
Шаг 3. Настроить сайт
Занятие №3
Шаг 1. Настроить формирование ссылок на вашем сайте
Шаг 2. Создать карту вашего сайта
Шаг 3. Подключить к сайту счетчик Яндекс.Метрика
Шаг 4. Защитить админку сайта от подбора пароля
Занятие №4
Шаг 1. Настроить свой блог с точки зрения SEO
Шаг 2. Настроить кеширование вашего сайта для меньшей нагрузки на хостинг
Добавить сайт в яндекс
Добавить сайт в гугл
Занятие №5
Шаг 1. Изучить все, что касается тем оформления
Шаг 2. Посмотреть пример установки и настройки бесплатной темы

MI

Общее
Полное имя : D:\Андрей\279-PvNYTrg\Четвертое занятие новогоднего тренинга.mp4
Формат : MPEG-4
Профиль формата : Base Media / Version 2
Идентификатор кодека : mp42
Размер файла : 51,7 Мбайт
Продолжительность : 11 м.
Режим общего битрейта : Переменный
Общий поток : 650 Кбит/сек
Дата кодирования : UTC 2014-01-08 16:36:55
Дата пометки : UTC 2014-01-08 16:36:55
gsst : 0
gstd : 667015
gssd : B4A7DA362HH1389323578926974
gshh : r6---sn-5go7ln7z.googlevideo.com
Видео
Идентификатор : 1
Формат : AVC
Формат/Информация : Advanced Video Codec
Профиль формата : [url=mailto:High@L3.1]High@L3.1[/url]
Параметр CABAC формата : Да
Параметр ReFrames формата : 1 кадр
Параметр GOP формата : M=1, N=60
Идентификатор кодека : avc1
Идентификатор кодека/Информация : Advanced Video Coding
Продолжительность : 11 м.
Битрейт : 455 Кбит/сек
Максимальный битрейт : 2224 Кбит/сек
Ширина : 1280 пикселей
Высота : 720 пикселей
Соотношение сторон : 16:9
Режим частоты кадров : Постоянный
Частота кадров : 30,000 кадров/сек
Цветовое пространство : YUV
Субдискретизация насыщенности : 4:2:0
Битовая глубина : 8 бит
Тип развёртки : Прогрессивная
Бит/(Пиксели*Кадры) : 0.016
Размер потока : 36,2 Мбайт (70%)
Дата пометки : UTC 2014-01-08 16:36:59
Аудио
Идентификатор : 2
Формат : AAC
Формат/Информация : Advanced Audio Codec
Профиль формата : LC
Идентификатор кодека : 40
Продолжительность : 11 м.
Вид битрейта : Переменный
Битрейт : 192 Кбит/сек
Максимальный битрейт : 201 Кбит/сек
Каналы : 2 канала
Расположение каналов : Front: L R
Частота : 44,1 КГц
Метод сжатия : С потерями
Размер потока : 15,3 Мбайт (30%)
Заголовок : IsoMedia File Produced by Google, 5-11-2011
Дата кодирования : UTC 2014-01-08 16:36:58
Дата пометки : UTC 2014-01-08 16:36:59
Скриншоты:
Скачать .torrent

Для того, чтобы скачать торрент-файл

Евгений Попов - Новогодний онлайн-тренинг по созданию сайта (2014)

с нашего сайта, Вам необходимо Войти на сайт под своим логином! Если у Вас ещё нет логина, тогда Вам нужно сначала Зарегистрироваться!

Как скачивать? · Что такое торрент? · Рейтинг и ограничения

Лукаш

Спасибо.

tolik2016

Спасибо за раздачу
Показать сообщения:    
Ответить на тему

Евгений Попов - Новогодний онлайн-тренинг по созданию сайта (2014) скачать торрент (torrent), видеоуроки, тренинги, обучающее видео и видеокурсы

Текущее время: Сегодня 06:47

Часовой пояс: GMT + 4



Вы не можете начинать темы
Вы не можете отвечать на сообщения
Вы не можете редактировать свои сообщения
Вы не можете удалять свои сообщения
Вы не можете голосовать в опросах
Вы не можете прикреплять файлы к сообщениям
Вы не можете скачивать файлы