Изучаем Zentyal - Персональные администраторы (2011)

Ответить на тему
 
Автор Сообщение

Yulya ®

-Изучаем Zentyal - Персональные администраторы (2011)- Автор (режиссер): Персональные администраторы
Жанр: Сервер
Продолжительность: 00:56:53
Качество видео: WEBRip
Видеокодек: MPEG-4
Битрейт видео: ~777 Kbps
Размер кадра: 1280x720
Аудиокодек: AAC
Битрейт аудио: 152
Описание:
Zentyal Linux Small Business Server - комплексное решение всех основных задач офисной сети для малого и среднего бизнеса. Видео уроки предназначены для предварительной установки и настройки дистрибутива Zentyal Linux.

Список уроков:

1.Уроки Zentyal (Введение)
2.Уроки Zentyal (Установка)
3.Уроки Zentyal (Настройка сети)
4.Уроки Zentyal (Настройка прокси)
5.Уроки Zentyal (Пользователи и управление доступом)
6.Уроки Zentyal (Пользователи и управление доступом, часть 2)
7.Уроки Zentyal (Электронная почта)
8.Уроки Zentyal (Электронная почта. Часть 2)
9.Уроки Zentyal (Настройка VPN)
10.Уроки Zentyal 3 (Zentyal в роли Windows DC)

MediaInfo:

General
Complete name : C:\Users\Karen\Videos\Zentyal\2.Уроки Zentyal (Установка).mp4
Format : MPEG-4
Format profile : Base Media / Version 2
Codec ID : mp42
File size : 30.8 MiB
Duration : 7mn 4s
Overall bit rate mode : Variable
Overall bit rate : 610 Kbps
Encoded date : UTC 2011-09-04 15:24:14
Tagged date : UTC 2011-09-04 15:24:14
gsst : 0
gstd : 424125
gssd : B4A7DD881MH1390411583149834
gshh : r1---sn-cg07lue6.googlevideo.com
Video
ID : 1
Format : AVC
Format/Info : Advanced Video Codec
Format profile : [url=mailto:High@L3.1]High@L3.1[/url]
Format settings, CABAC : Yes
Format settings, ReFrames : 1 frame
Codec ID : avc1
Codec ID/Info : Advanced Video Coding
Duration : 7mn 4s
Bit rate : 451 Kbps
Maximum bit rate : 4 949 Kbps
Width : 1 280 pixels
Height : 720 pixels
Display aspect ratio : 16:9
Frame rate mode : Variable
Frame rate : 29.970 fps
Minimum frame rate : 29.412 fps
Maximum frame rate : 30.303 fps
Color space : YUV
Chroma subsampling : 4:2:0
Bit depth : 8 bits
Scan type : Progressive
Bits/(Pixel*Frame) : 0.016
Stream size : 22.8 MiB (74%)
Tagged date : UTC 2011-09-04 15:24:16
Audio
ID : 2
Format : AAC
Format/Info : Advanced Audio Codec
Format profile : LC
Codec ID : 40
Duration : 7mn 4s
Bit rate mode : Variable
Bit rate : 152 Kbps
Maximum bit rate : 188 Kbps
Channel count : 2 channels
Channel positions : Front: L R
Sampling rate : 44.1 KHz
Compression mode : Lossy
Stream size : 7.68 MiB (25%)
Title : IsoMedia File Produced by Google, 5-11-2011
Encoded date : UTC 2011-09-04 15:24:14
Tagged date : UTC 2011-09-04 15:24:16
Скриншоты:
Скачать .torrent

Для того, чтобы скачать торрент-файл

Изучаем Zentyal - Персональные администраторы (2011)

с нашего сайта, Вам необходимо Войти на сайт под своим логином! Если у Вас ещё нет логина, тогда Вам нужно сначала Зарегистрироваться!

Как скачивать? · Что такое торрент? · Рейтинг и ограничения

Показать сообщения:    
Ответить на тему

Изучаем Zentyal - Персональные администраторы (2011) скачать торрент (torrent), видеоуроки, тренинги, обучающее видео и видеокурсы

Текущее время: Сегодня 22:12

Часовой пояс: GMT + 4



Вы не можете начинать темы
Вы не можете отвечать на сообщения
Вы не можете редактировать свои сообщения
Вы не можете удалять свои сообщения
Вы не можете голосовать в опросах
Вы не можете прикреплять файлы к сообщениям
Вы не можете скачивать файлы