Виталий Апёнкин - Сведение и мастеринг музыки от А до Я (2012)

Ответить на тему
 
Автор Сообщение

Yulya ®

-Виталий Апёнкин - Сведение и мастеринг музыки от А до Я (2012)- Автор (режиссер): Виталий Апёнкин
Жанр: Работа со звуком
Язык: Русский
Продолжительность: 03:42:19
Качество видео: PCRec
Видеокодек: XviD
Битрейт видео: 1 366 Kbps, 25.000 fps
Размер кадра: 720x480, 3:2
Аудиокодек: MP3
Битрейт аудио: 320 Kbps, 2 channels, 44.1 KHz
Описание: "Сведение и мастеринг музыки от А до Я" - это видеокурс о записи звука, сведении и мастеринге музыки на компьютере в домашней студии.
Видеокурс для каждого, кто хочет научиться записывать музыкальную группу, делать сведение и мастеринг музыки на компьютере, но не знает, с чего начать!

Из курса Вы узнаете:

Как записывать «живые» барабаны.
Как сделать сведение «живых» барабанов.
Как правильно заменить звуки записанных барабанов, качественными семплированными звуками и сохранить ритмический рисунок и динамику «живого» исполнения.
Как выровнять темп записанных «живых» барабанов.
Как создать барабанные партии.
Как автоматически создать партию барабанов.
Как обработать звук барабанов.
Как записать бас гитару.
Как обработать записанную бас гитару.
Как выровнять темп записанной бас гитары.
Как создать партию бас гитары.
Как автоматически создать партию бас гитары.
Как записать гитару.
Как изменить звук гитары.
Как обработать звук записанной гитары.
Как создать партию гитары.
Как автоматически создать партию гитары.
Как сделать эффект «гитарная стена».
Как подключить клавиши и записывать MIDI информацию.
Как подключить VST-инструменты.
Как автоматически создать аккорды и арпеджио.
Как автоматически создать аранжировку песни.
Как записать голос.
Как обработать голос.
Как сделать сведение голоса и музыки.
Как применять и настраивать эквалайзер на голос и различные инструменты.
Как применять и настраивать компрессор на голос и различные музыкальные инструменты.
Как применять и настраивать ревербератор.
Как применять и настраивать дилей.
Как применять и настраивать другие плагины обработки звука.
Как сделать сведение музыки.
Как сделать мастеринг музыки.
Как применять и настраивать эффекты обработки звука при мастеринге.
Как получить достойную запись вашей музыки на компьютере в домашней студии.

MediaInfo:

General
Complete name : D:\Виталий Апенкин - Сведение и мастеринг музыки от А до Я\01 Барабан.avi
Format : AVI
Format/Info : Audio Video Interleave
File size : 548 MiB
Duration : 43mn 16s
Overall bit rate : 1 771 Kbps
TCOD : 0
TCDO : 25964800000
Video
ID : 0
Format : MPEG-4 Visual
Format profile : Advanced Simple@L5
Format settings, BVOP : 2
Format settings, QPel : No
Format settings, GMC : No warppoints
Format settings, Matrix : Default (H.263)
Muxing mode : Packed bitstream
Codec ID : XVID
Codec ID/Hint : XviD
Duration : 43mn 16s
Bit rate : 1 366 Kbps
Width : 720 pixels
Height : 480 pixels
Display aspect ratio : 3:2
Frame rate : 25.000 fps
Standard : NTSC
Color space : YUV
Chroma subsampling : 4:2:0
Bit depth : 8 bits
Scan type : Progressive
Compression mode : Lossy
Bits/(Pixel*Frame) : 0.158
Stream size : 423 MiB (77%)
Writing library : XviD 1.1.2 (UTC 2006-11-01)
Audio
ID : 1
Format : MPEG Audio
Format version : Version 1
Format profile : Layer 3
Mode : Joint stereo
Codec ID : 55
Codec ID/Hint : MP3
Duration : 43mn 14s
Bit rate mode : Constant
Bit rate : 320 Kbps
Channel(s) : 2 channels
Sampling rate : 44.1 KHz
Compression mode : Lossy
Stream size : 99.0 MiB (18%)
Alignment : Aligned on interleaves
Interleave, duration : 250 ms (6.25 video frames)
Interleave, preload duration : 261 ms
Скриншоты:
Скачать .torrent

Для того, чтобы скачать торрент-файл

Виталий Апёнкин - Сведение и мастеринг музыки от А до Я (2012)

с нашего сайта, Вам необходимо Войти на сайт под своим логином! Если у Вас ещё нет логина, тогда Вам нужно сначала Зарегистрироваться!

Как скачивать? · Что такое торрент? · Рейтинг и ограничения

Показать сообщения:    
Ответить на тему

Виталий Апёнкин - Сведение и мастеринг музыки от А до Я (2012) скачать торрент (torrent), видеоуроки, тренинги, обучающее видео и видеокурсы

Текущее время: Сегодня 16:43

Часовой пояс: GMT + 4



Вы не можете начинать темы
Вы не можете отвечать на сообщения
Вы не можете редактировать свои сообщения
Вы не можете удалять свои сообщения
Вы не можете голосовать в опросах
Вы не можете прикреплять файлы к сообщениям
Вы не можете скачивать файлы