Wikisound.org - Полное изучение синтезатора Sytrus (2013)

Ответить на тему
 
Автор Сообщение

Yulya ®

-Wikisound.org - Полное изучение синтезатора Sytrus (2013)- Автор (режиссер): Wikisound.org
Жанр: Работа со звуком
Язык: Русский
Продолжительность: 03:22:45
Качество видео: PCRec
Видеокодек: AVC/H.264
Битрейт видео: ~2 281 Kbps, 25.000 fps
Размер кадра: 1280x720, 16:9
Аудиокодек: AAC
Битрейт аудио: ~318 Kbps, 2 channels, 44.1 KHz
Описание: Данный курс - это руководство о FM синтезаторе Sytrus, и предназначено для изучения наиболее важных его инструментов управления. Здесь будет описан каждый контроллер и переключатель, и то как они влияют на звук.

Содержание:

01 Работа с формой осциллятора
02 Работа с высотой тона осциллятора
03 Огибающие
04 LFO
05 Закладки PAN, DAMP, PHASE, PITCH
06 Работа с фильтрами
07 Гармоники осциллятора (вкладка OSC)
08 FM матрица
09 Как работае FM синтез
10 Как работает кольцевая модуляция (RM синтез)
11 Как работает вэйвшейпер (вкладки WS, WMIX)
12 Закладки KEY M, VEL M, MOD X, MOD Y, RAND
13 Работа с эффектами
14 Унисон
15 Главная закладка (MAIN)
16 Как сделать портаменто

MediaInfo:

General
Complete name : H:\Фильмы\Wikisound.org - Полное изучение синтезатора Sytrus\Sytrus 01 из 16 Работа с формой осциллятора.mp4
Format : MPEG-4
Format profile : Base Media / Version 2
Codec ID : mp42
File size : 328 MiB
Duration : 17mn 38s
Overall bit rate : 2 603 Kbps
Encoded date : UTC 2013-08-19 08:35:12
Tagged date : UTC 2013-08-19 08:35:16
©TIM : 00:00:00:00
©TSC : 25
©TSZ : 1
Video
ID : 1
Format : AVC
Format/Info : Advanced Video Codec
Format profile : [url=mailto:Main@L3.2]Main@L3.2[/url]
Format settings, CABAC : Yes
Format settings, ReFrames : 3 frames
Codec ID : avc1
Codec ID/Info : Advanced Video Coding
Duration : 17mn 38s
Bit rate mode : Variable
Bit rate : 2 281 Kbps
Width : 1 280 pixels
Height : 720 pixels
Display aspect ratio : 16:9
Frame rate mode : Constant
Frame rate : 25.000 fps
Standard : NTSC
Color space : YUV
Chroma subsampling : 4:2:0
Bit depth : 8 bits
Scan type : Progressive
Bits/(Pixel*Frame) : 0.099
Stream size : 288 MiB (88%)
Language : English
Encoded date : UTC 2013-08-19 08:35:12
Tagged date : UTC 2013-08-19 08:35:12
Audio
ID : 2
Format : AAC
Format/Info : Advanced Audio Codec
Format version : Version 4
Format profile : LC
Format settings, SBR : No
Codec ID : 40
Duration : 17mn 38s
Bit rate mode : Variable
Bit rate : 318 Kbps
Maximum bit rate : 407 Kbps
Channel(s) : 2 channels
Channel positions : Front: L R
Sampling rate : 44.1 KHz
Stream size : 40.1 MiB (12%)
Language : English
Encoded date : UTC 2013-08-19 08:35:12
Tagged date : UTC 2013-08-19 08:35:12
Скачать .torrent

Для того, чтобы скачать торрент-файл

Wikisound.org - Полное изучение синтезатора Sytrus (2013)

с нашего сайта, Вам необходимо Войти на сайт под своим логином! Если у Вас ещё нет логина, тогда Вам нужно сначала Зарегистрироваться!

Как скачивать? · Что такое торрент? · Рейтинг и ограничения

Показать сообщения:    
Ответить на тему

Wikisound.org - Полное изучение синтезатора Sytrus (2013) скачать торрент (torrent), видеоуроки, тренинги, обучающее видео и видеокурсы

Текущее время: Сегодня 10:05

Часовой пояс: GMT + 4



Вы не можете начинать темы
Вы не можете отвечать на сообщения
Вы не можете редактировать свои сообщения
Вы не можете удалять свои сообщения
Вы не можете голосовать в опросах
Вы не можете прикреплять файлы к сообщениям
Вы не можете скачивать файлы