Nina Knows How - Реставрация старой фотографии в Photoshop (2013)

Ответить на тему
 
Автор Сообщение

Yulya ®

-Nina Knows How - Реставрация старой фотографии в Photoshop (2013)- Автор (режиссер): Nina Knows How
Жанр: Обучающее видео
Продолжительность: 01:09:55
Качество видео: PCRec
Видеокодек: AVC
Битрейт видео: ~29.97fps 1020kbps
Размер кадра: 1280x720
Аудиокодек: AAC
Битрейт аудио: 44100Hz stereo 192kbps
Описание:
Миникурс по восстановлению старой фотографии с помощью Photoshop.
Более часа полезного видео.

MI

Общее
Полное имя : D:\Андрей\Restavraciya_staroy_fotografii.mp4
Формат : MPEG-4
Профиль формата : Base Media / Version 2
Идентификатор кодека : mp42
Размер файла : 607 Мбайт
Продолжительность : 1 ч. 9 м.
Режим общего битрейта : Переменный
Общий поток : 1215 Кбит/сек
Дата кодирования : UTC 2013-12-23 14:26:48
Дата пометки : UTC 2013-12-23 14:26:48
gsst : 0
gstd : 4194683
gssd : B5E893FC5MH1388895014032780
gshh : r2---sn-vh3j-vhne.googlevideo.com
Видео
Идентификатор : 1
Формат : AVC
Формат/Информация : Advanced Video Codec
Профиль формата : [url=mailto:High@L3.1]High@L3.1[/url]
Параметр CABAC формата : Да
Параметр ReFrames формата : 1 кадр
Параметр GOP формата : M=1, N=60
Идентификатор кодека : avc1
Идентификатор кодека/Информация : Advanced Video Coding
Продолжительность : 1 ч. 9 м.
Битрейт : 1020 Кбит/сек
Максимальный битрейт : 9081 Кбит/сек
Ширина : 1280 пикселей
Высота : 720 пикселей
Соотношение сторон : 16:9
Режим частоты кадров : Постоянный
Частота кадров : 29,970 кадров/сек
Цветовое пространство : YUV
Субдискретизация насыщенности : 4:2:0
Битовая глубина : 8 бит
Тип развёртки : Прогрессивная
Бит/(Пиксели*Кадры) : 0.037
Размер потока : 510 Мбайт (84%)
Дата пометки : UTC 2013-12-23 14:29:15
Аудио
Идентификатор : 2
Формат : AAC
Формат/Информация : Advanced Audio Codec
Профиль формата : LC
Идентификатор кодека : 40
Продолжительность : 1 ч. 9 м.
Вид битрейта : Переменный
Битрейт : 192 Кбит/сек
Максимальный битрейт : 202 Кбит/сек
Каналы : 2 канала
Расположение каналов : Front: L R
Частота : 44,1 КГц
Метод сжатия : С потерями
Размер потока : 96,0 Мбайт (16%)
Заголовок : IsoMedia File Produced by Google, 5-11-2011
Дата кодирования : UTC 2013-12-23 14:28:14
Дата пометки : UTC 2013-12-23 14:29:15
Скриншоты:
Скачать .torrent

Для того, чтобы скачать торрент-файл

Nina Knows How - Реставрация старой фотографии в Photoshop (2013)

с нашего сайта, Вам необходимо Войти на сайт под своим логином! Если у Вас ещё нет логина, тогда Вам нужно сначала Зарегистрироваться!

Как скачивать? · Что такое торрент? · Рейтинг и ограничения

Показать сообщения:    
Ответить на тему

Nina Knows How - Реставрация старой фотографии в Photoshop (2013) скачать торрент (torrent), видеоуроки, тренинги, обучающее видео и видеокурсы

Текущее время: Сегодня 06:20

Часовой пояс: GMT + 4



Вы не можете начинать темы
Вы не можете отвечать на сообщения
Вы не можете редактировать свои сообщения
Вы не можете удалять свои сообщения
Вы не можете голосовать в опросах
Вы не можете прикреплять файлы к сообщениям
Вы не можете скачивать файлы