Zwook.ru - Трек шаг за шагом с мастером транс-музыки oCelot (2013)

Ответить на тему
 
Автор Сообщение

Yulya ®

-Zwook.ru - Трек шаг за шагом с мастером транс-музыки oCelot (2013)- Автор (режиссер): Zwook.ru
Жанр: Работа со звуком
Язык: Русский
Продолжительность: 07:32:15
Качество видео: PCRec
Видеокодек: AVC/H.264
Битрейт видео: ~381 Kbps, 24.000 fps
Размер кадра: 1152x720, 1.600
Аудиокодек: AAC
Битрейт аудио: ~318 Kbps, 2 channels, 44.1 KHz
Описание: Последние 10 лет имя oCelot можно найти во многих лайн-апах крупнейших транс-фестивалей. Аарон настоящий артист и музыкант, способный растанцевать тысячную аудиторию слушателей.
За годы практики он выработал очень эффективный подход, позволяющий не делать лишнего и создавать композиции на лету, постоянно пополняя свою коллекцию музыки.
Этот видеокурс — супер возможность прикоснуться к многолетнему опыту практика, перенять самые эффективные подходы и вдохновиться на собственную музыку.

Дополнительная информация:

Посмотри, как с чистого листа на протяжении 7 часов рождаются и умирают идеи, синтезируются и видоизменяются звуки, программируются лихие ударные и бас, проявляются разные элементы будущего трека.
На твоих глазах создаётся трек, который потом становится сопровождением для танцев сотен людей. Уже через час после старта видео мы видим, как создаётся уверенный бит и мелодика, которые становятся основой для трека. В итоге имеем завершённый трек, который готов для запуска.
Вместе с Аароном ты проходишь все этапы создания отличного танцевального трека: идея, основа, программирование ритм-секции, проработка тембра баса, программирование мелодических линий, импровизация и редактирование, сложная обработка и дальнейшая судьба партий, второстепенные партии, FX, баланс и доработка деталей.
Очень важно, что ты получаешь не только технические моменты для продуктивной работы, но и уникальный подход автора к созданию музыки. Вдохновение от курса гарантировано, тебе останется только внедрить полученные знания на практике.

MediaInfo:

General
Complete name : H:\Фильмы\ocelot_1.0_course_zwook.ru\AutoPlay\Docs\trance_track_with_ocelot_video_2_zwook.ru.mp4
Format : MPEG-4
Format profile : Base Media / Version 2
Codec ID : mp42
File size : 257 MiB
Duration : 51mn 17s
Overall bit rate : 701 Kbps
Encoded date : UTC 2013-10-30 05:33:56
Tagged date : UTC 2013-10-30 05:33:56
Video
ID : 1
Format : AVC
Format/Info : Advanced Video Codec
Format profile : [url=mailto:Baseline@L3.1]Baseline@L3.1[/url]
Format settings, CABAC : No
Format settings, ReFrames : 3 frames
Codec ID : avc1
Codec ID/Info : Advanced Video Coding
Duration : 51mn 17s
Bit rate mode : Variable
Bit rate : 381 Kbps
Width : 1 152 pixels
Height : 720 pixels
Display aspect ratio : 1.600
Frame rate mode : Variable
Frame rate : 24.000 fps
Minimum frame rate : 24.000 fps
Maximum frame rate : 24.024 fps
Color space : YUV
Chroma subsampling : 4:2:0
Bit depth : 8 bits
Scan type : Progressive
Bits/(Pixel*Frame) : 0.019
Stream size : 140 MiB (54%)
Language : English
Encoded date : UTC 2013-10-30 05:33:56
Tagged date : UTC 2013-10-30 05:33:56
Audio
ID : 2
Format : AAC
Format/Info : Advanced Audio Codec
Format version : Version 4
Format profile : LC
Format settings, SBR : No
Codec ID : 40
Duration : 51mn 17s
Bit rate mode : Variable
Bit rate : 318 Kbps
Maximum bit rate : 526 Kbps
Channel(s) : 2 channels
Channel positions : Front: L R
Sampling rate : 44.1 KHz
Stream size : 117 MiB (45%)
Language : English
Encoded date : UTC 2013-10-30 05:33:56
Tagged date : UTC 2013-10-30 05:33:56
Скриншоты:
Скачать .torrent

Для того, чтобы скачать торрент-файл

Zwook.ru - Трек шаг за шагом с мастером транс-музыки oCelot (2013)

с нашего сайта, Вам необходимо Войти на сайт под своим логином! Если у Вас ещё нет логина, тогда Вам нужно сначала Зарегистрироваться!

Как скачивать? · Что такое торрент? · Рейтинг и ограничения

Показать сообщения:    
Ответить на тему

Zwook.ru - Трек шаг за шагом с мастером транс-музыки oCelot (2013) скачать торрент (torrent), видеоуроки, тренинги, обучающее видео и видеокурсы

Текущее время: Сегодня 03:57

Часовой пояс: GMT + 4



Вы не можете начинать темы
Вы не можете отвечать на сообщения
Вы не можете редактировать свои сообщения
Вы не можете удалять свои сообщения
Вы не можете голосовать в опросах
Вы не можете прикреплять файлы к сообщениям
Вы не можете скачивать файлы