Александр Карташев - Все секреты Wi-Fi для дома и офиса (2013)

Ответить на тему
 
Автор Сообщение

Yulya ®

-Александр Карташев - Все секреты Wi-Fi для дома и офиса (2013)- Автор (режиссер): Александр Карташев
Жанр: Компьютер,Wi-Fi
Продолжительность: 3:20:00
Качество видео: PCRec
Видеокодек: AVC
Битрейт видео: ~111 Кбит/сек
Размер кадра: 1280 х 720
Аудиокодек: AAC
Битрейт аудио: 53,6 Кбит/сек
Описание:
Нужен интернет на любом устройстве? Беспроводная сеть дома или в офисе? С общим доступом к файлам и принтеру? С возможностью видеонаблюдения за помещением через интернет? Узнай, как сделать сеть Wi-Fi с интернетом! Без помощи профессионалов.
Перед Вами полноценный пошаговый обучающий видеокурс по организации Wi-Fi, в котором автор делится всеми своими знаниями и опытом, благодаря которым вы сэкономите кучу времени и нервов и в кратчайшие сроки создадите полноценную домашнюю беспроводную сеть с выходом в Интернет и подключите к ней все устройства, имеющие поддержку WiFi.

Что Вы получите:

Полноценную беспроводную сеть
Доступ к общим файлам, папкам, видео, музыке, принтеру и веб-камере с любого устройства - от компьютера и ноутбука до планшета и телевизора.
Доступ в интернет
Со всех устройств, входящих в локальную беспроводную сеть из любой точки квартиры, загородного дома или приусадебного участка.
Готовую систему видеонаблюдения
С возможностью просмотра изображения с камеры на компьютере или смартфоне из сети или интернета. С детекцией на движение и автоматическим уведомлением о тревоге по Email.
Сэкономите время
На самостоятельный поиск всей необходимой для создания дома Wi-Fi сети информации Вы бы потратили уйму сил и времени.
Сэкономите деньги
Без необходимых знаний и навыков Вы бы потратили кругленькую сумму на приобретение несовместимых, некачественных или неподходящих для Вашего типа подключения устройств.

Содержание:

Wi-Fi без роутера
Что такое беспроводные сети Wi-Fi?
Для чего целесообразно использовать "тройник" USB?
Что такое Wi-Fi адаптер и как его выбрать?
Соединение двух компьютеров по Wi-Fi напрямую
Компьютер как точка доступа
Общий доступ к принтеру
USB 3G модем
Wi-Fi Роутер
Что такое роутер и как выбрать?
Установка драйверов и утилит
Настройка роутера
Защита сети wi-fi
Подключение к сети
Бекап прошивки и Перепрошивка роутера
Режимы работы роутера
Организация гостевой сети
Брандмауэр — фильтры
Как открыть общий доступ к папкам и файлам?
Настройка общего принтера, подключенного к одному из компьютеров
Настройка общего принтера, подключенного к роутеру
Что такое IP адрес, как его узнать. Регистрация в сервисе динамических адресов DynDNS.
Как использовать USB флеш-накопитель в качестве FTP-сервера в интернете?
Настройка прав доступа к ресурсам сети. Родительский контроль
Проброс портов и Настройка BitTorrent через роутер
Скорость и мониторинг трафика
Подключение 3G модема к роутеру
Усиление сигнала 3G модема или роутера
Видеонаблюдение
Подключение веб-камеры и видеонаблюдение через on-line сервис
Обзор программы для создания системы наблюдения
Трансляция вебкамеры в локальную беспроводную сеть
Трансляция видеонаблюдения в интернет
Дополнительные возможности. Детекторы звука и движения. Ограничение доступа по паролю.
Wi-Fi и телевизор
Выбор WiFi адаптера и подключение ТВ к сети и интернету
Создание видео-сервера, подключение телевизора к компьютеру и просмотр фильмов, музыки и фотографий с жесткого диска ПК
Wi-Fi и планшет
Подключение планшета к роутеру
Подключение к медиасерверу с планшета
Подключение к накопителю с планшета
Планшет как точка доступа
Подключение планшета к видеонаблюдению
Все программы используемые в видеокурсе есть на диске.

MediaInfo

Общее
Полное имя : C:\Вce сeкpeты Вай-Фай для дoма и oфисa\Content\files\1.0.mp4
Формат : MPEG-4
Профиль формата : Base Media / Version 2
Идентификатор кодека : mp42
Размер файла : 11,2 Мбайт
Продолжительность : 9 м. 25 с.
Общий поток : 167 Кбит/сек
Дата кодирования : UTC 2013-03-10 08:26:58
Дата пометки : UTC 2013-03-10 08:26:58
Видео
Идентификатор : 1
Формат : AVC
Формат/Информация : Advanced Video Codec
Профиль формата : [url=mailto:High@L3.1]High@L3.1[/url]
Параметр CABAC формата : Да
Параметр ReFrames формата : 4 кадра
Параметр GOP формата : M=1, N=125
Идентификатор кодека : avc1
Идентификатор кодека/Информация : Advanced Video Coding
Продолжительность : 9 м. 25 с.
Продолжительность оригинала : 9 м. 25 с.
Битрейт : 111 Кбит/сек
Ширина : 1280 пикселей
Высота : 720 пикселей
Соотношение сторон : 16:9
Режим частоты кадров : Постоянный
Частота кадров : 25,000 кадров/сек
Стандарт вещания : PAL
Цветовое пространство : YUV
Субдискретизация насыщенности : 4:2:0
Битовая глубина : 8 бит
Тип развёртки : Прогрессивная
Бит/(Пиксели*Кадры) : 0.005
Размер потока : 7,45 Мбайт (66%)
Размер потока оригинала : 7,45 Мбайт (66%)
Язык : English
Дата кодирования : UTC 2013-03-10 08:26:58
Дата пометки : UTC 2013-03-10 08:26:58
Основные цвета : BT.709
Характеристики трансфера : BT.709
Коэффициенты матрицы : BT.709
mdhd_Duration : 565047
Аудио
Идентификатор : 2
Формат : AAC
Формат/Информация : Advanced Audio Codec
Профиль формата : LC
Идентификатор кодека : 40
Продолжительность : 9 м. 25 с.
Продолжительность оригинала : 9 м. 25 с.
Вид битрейта : Постоянный
Битрейт : 53,6 Кбит/сек
Каналы : 2 канала
Расположение каналов : Front: L R
Частота : 44,1 КГц
Метод сжатия : С потерями
Размер потока : 3,61 Мбайт (32%)
Размер потока оригинала : 3,61 Мбайт (32%)
Язык : English
Дата кодирования : UTC 2013-03-10 08:26:58
Дата пометки : UTC 2013-03-10 08:26:58
mdhd_Duration : 565052
Скриншоты
Скачать .torrent

Для того, чтобы скачать торрент-файл

Александр Карташев - Все секреты Wi-Fi для дома и офиса (2013)

с нашего сайта, Вам необходимо Войти на сайт под своим логином! Если у Вас ещё нет логина, тогда Вам нужно сначала Зарегистрироваться!

Как скачивать? · Что такое торрент? · Рейтинг и ограничения

Показать сообщения:    
Ответить на тему

Александр Карташев - Все секреты Wi-Fi для дома и офиса (2013) скачать торрент (torrent), видеоуроки, тренинги, обучающее видео и видеокурсы

Текущее время: Сегодня 10:04

Часовой пояс: GMT + 4



Вы не можете начинать темы
Вы не можете отвечать на сообщения
Вы не можете редактировать свои сообщения
Вы не можете удалять свои сообщения
Вы не можете голосовать в опросах
Вы не можете прикреплять файлы к сообщениям
Вы не можете скачивать файлы