Zwook.ru - Секретные материалы 2 (2012)

Ответить на тему
 
Автор Сообщение

Yulya ®

-Zwook.ru - Секретные материалы 2 (2012)- Автор (режиссер): Zwook.ru
Жанр: Работа со звуком
Язык: Русский
Продолжительность: 05:59:10
Качество видео: PCRec
Видеокодек: AVC/H.264
Битрейт видео: ~166 Kbps, 15.000 fps
Размер кадра: 1280x800, 1.600
Аудиокодек: AAC
Битрейт аудио: 96.0 Kbps, 2 channels, 44.1 KHz
Описание: За последние 2 года на zwook.ru вышло огромное количество материалов в свободном доступе. Но это далеко не всё... Сейчас вы узнаете, что же происходило кроме этого. Так сказать, заглянете за занавес.
Во-первых, специально ко второму дню рождения нашего проекта, все авторы zwook.ru записали для вас эксклюзивные материалы на наиболее актуальные и интересные темы.
Также в комплект "Секретные материалы 2" вошли разные уроки и видеокурсы, которые были выпущены за последний год. Теперь, во второй День Рождения zwook.ru, мы решили объединить и рассекретить эти материалы.

Содержание:

Side-chain компрессия: 6 способов применения. Часть 1,2,3
Создание баса из перкуссии
Создание полноценной партии из короткого лупа
6 способов сделать звучание шире и жирнее
Создание идеальной атмосферы
Создание эффектов с нуля с применением субтрактивного синтеза
Создание пэдов с нуля с применением субтрактивного синтеза
Создание комплексных двухслойных звуков с применением субтрактивного синтеза
Работа с вокальной партией. Подстройка по тональности
Работа с вокальной партией. Ворпинг / Тайм-стретчинг
Работа с вокальной партией. Обработка
Основы контроллеризма. Экскурс в историю явления
Маппинг - Главное в контроллеризме
Ремикс “на лету” с помощью контроллера, акапеллы и Sample Deck
Бонусное видео для геймеров

MediaInfo:

General
Complete name : H:\Фильмы\Zwook.ru - Секретные материалы 2\AutoPlay\Videos\xf2_chronos_fx_zwook.ru.mp4
Format : MPEG-4
Format profile : Base Media / Version 2
Codec ID : mp42
File size : 26.6 MiB
Duration : 13mn 59s
Overall bit rate : 265 Kbps
Encoded date : UTC 2012-04-23 21:15:57
Tagged date : UTC 2012-04-23 21:15:57
Video
ID : 2
Format : AVC
Format/Info : Advanced Video Codec
Format profile : [url=mailto:Main@L3.2]Main@L3.2[/url]
Format settings, CABAC : Yes
Format settings, ReFrames : 5 frames
Codec ID : avc1
Codec ID/Info : Advanced Video Coding
Duration : 13mn 59s
Bit rate mode : Variable
Bit rate : 166 Kbps
Width : 1 280 pixels
Height : 800 pixels
Display aspect ratio : 1.600
Frame rate mode : Constant
Frame rate : 15.000 fps
Standard : NTSC
Color space : YUV
Chroma subsampling : 4:2:0
Bit depth : 8 bits
Scan type : Progressive
Bits/(Pixel*Frame) : 0.011
Stream size : 16.7 MiB (63%)
Language : English
Encoded date : UTC 2012-04-23 21:15:57
Tagged date : UTC 2012-04-23 21:15:57
Audio
ID : 1
Format : AAC
Format/Info : Advanced Audio Codec
Format version : Version 4
Format profile : LC
Format settings, SBR : No
Codec ID : 40
Duration : 13mn 59s
Bit rate mode : Constant
Bit rate : 96.0 Kbps
Channel(s) : 2 channels
Channel positions : Front: L R
Sampling rate : 44.1 KHz
Stream size : 9.61 MiB (36%)
Language : English
Encoded date : UTC 2012-04-23 21:15:57
Tagged date : UTC 2012-04-23 21:15:57
Скриншоты:
Скачать .torrent

Для того, чтобы скачать торрент-файл

Zwook.ru - Секретные материалы 2 (2012)

с нашего сайта, Вам необходимо Войти на сайт под своим логином! Если у Вас ещё нет логина, тогда Вам нужно сначала Зарегистрироваться!

Как скачивать? · Что такое торрент? · Рейтинг и ограничения

Показать сообщения:    
Ответить на тему

Zwook.ru - Секретные материалы 2 (2012) скачать торрент (torrent), видеоуроки, тренинги, обучающее видео и видеокурсы

Текущее время: Сегодня 10:04

Часовой пояс: GMT + 4



Вы не можете начинать темы
Вы не можете отвечать на сообщения
Вы не можете редактировать свои сообщения
Вы не можете удалять свои сообщения
Вы не можете голосовать в опросах
Вы не можете прикреплять файлы к сообщениям
Вы не можете скачивать файлы