RusTuts.com - Как подружиться с любым секвенсором (2013)

Ответить на тему
 
Автор Сообщение

Yulya ®

-RusTuts.com - Как подружиться с любым секвенсором (2013)- Автор (режиссер): RusTuts.com
Жанр: Работа со звуком
Язык: Русский
Продолжительность: 00:51:25
Качество видео: PCRec
Видеокодек: AVC/H.264
Битрейт видео: ~6 512 Kbps, 30.000 fps
Размер кадра: 1920x1080, 16:9
Аудиокодек: AAC
Битрейт аудио: ~321 Kbps, 2 channels, 44.1 KHz
Описание: После просмотра видеокурса «Как подружиться с любым секвенсором?» вы сможете:
Быстро освоить новый секвенсор;
Легко применять новые приемы из видеоуроков;
Открывать плагины в любом секвенсоре;
Принимать для сведения проекты, а не мультитреки.
Также вас ждет обзор новой уникальной рабочей станции Ohm Studio, в которой можно работать в команде коллег со всего мира.

Содержание:

Введение
FL Studio
FL Studio — Установка плагинов и запись миди партий
FL Studio — Быстрый доступ к автоматизации параметров
FL Studio — Группировка каналов микшера
FL Studio — Параллельная обработка аудио сигнала
FL Studio — Side Chain c помощью сторонних плагинов
Ableton Live
Ableton Live — Объединенный трекер и секвенсор
Ableton Live — Два типа автоматизации параметров
Ableton Live — Два способа группировки каналов
Ableton Live — Два варианта параллельной обработки
Ableton Live — Реализация функция Side Chain
Cubase
Cubase — Главные особенности формата VST3
Cubase — Быстрый доступ к автоматизации параметров
Cubase — Группировка каналов микшера
Cubase — Создание эффекта посыла
Cubase — Альтернативная реализация Side Chain эффекта
Reaper
Reaper — Главная особенность
Reaper — Быстрый доступ к автоматизации параметров
Reaper — Группировка каналов и создание эффекта посыла
Reaper — Реализация функции Side Chain
Logic Pro X
Logic Pro X — Использование плагинов
Logic Pro X — Автоматизация
Logic Pro X — Группировка каналов микшера
Logic Pro X — Создание эффекта посыла
Logic Pro X — Реализация функция Side Chain
Pro Tools
Pro Tools — Установка и использование плагинов
Pro Tools — Быстрый доступ к автоматизации параметров
Pro Tools — Группировка каналов микшера
Pro Tools — Создание эффекта посыла
Pro Tools — Реализация функция Side Chain
Studio One
Studio One — Использование плагинов
Studio One — Автоматизация параметров
Studio One — Группировка каналов и эффект посыла
Studio One — Реализация функции Side Chain
Studio One — Специализированный интерфейс для мастеринга
Ohm Studio
Ohm Studio — Уникальная рабочая станция
Ohm Studio — Автоматизация
Ohm Studio — Группировка каналов
Ohm Studio — Эффект посыла
Ohm Studio — Side Chain
Заключение

MediaInfo:

General
Complete name : H:\Фильмы\RusTuts.com - Как подружиться с любым секвенсором\01. FL Studio - Установка плагинов и запись миди партий.mp4
Format : MPEG-4
Format profile : Base Media / Version 2
Codec ID : mp42
File size : 111 MiB
Duration : 2mn 16s
Overall bit rate : 6 835 Kbps
Encoded date : UTC 2013-11-19 18:22:06
Tagged date : UTC 2013-11-19 18:22:06
Video
ID : 1
Format : AVC
Format/Info : Advanced Video Codec
Format profile : [url=mailto:High@L4.0]High@L4.0[/url]
Format settings, CABAC : Yes
Format settings, ReFrames : 3 frames
Codec ID : avc1
Codec ID/Info : Advanced Video Coding
Duration : 2mn 16s
Bit rate mode : Variable
Bit rate : 6 512 Kbps
Width : 1 920 pixels
Height : 1 080 pixels
Display aspect ratio : 16:9
Frame rate mode : Variable
Frame rate : 30.000 fps
Minimum frame rate : 30.000 fps
Maximum frame rate : 30.030 fps
Standard : NTSC
Color space : YUV
Chroma subsampling : 4:2:0
Bit depth : 8 bits
Scan type : Progressive
Bits/(Pixel*Frame) : 0.105
Stream size : 106 MiB (95%)
Language : English
Encoded date : UTC 2013-11-19 18:22:07
Tagged date : UTC 2013-11-19 18:22:07
Color primaries : BT.709-5, BT.1361, IEC 61966-2-4, SMPTE RP177
Transfer characteristics : BT.709-5, BT.1361
Matrix coefficients : BT.709-5, BT.1361, IEC 61966-2-4 709, SMPTE RP177
Audio
ID : 2
Format : AAC
Format/Info : Advanced Audio Codec
Format version : Version 4
Format profile : LC
Format settings, SBR : No
Codec ID : 40
Duration : 2mn 16s
Bit rate mode : Variable
Bit rate : 321 Kbps
Maximum bit rate : 526 Kbps
Channel(s) : 2 channels
Channel positions : Front: L R
Sampling rate : 44.1 KHz
Stream size : 5.22 MiB (5%)
Language : English
Encoded date : UTC 2013-11-19 18:22:07
Tagged date : UTC 2013-11-19 18:22:07
Скриншоты:
Скачать .torrent

Для того, чтобы скачать торрент-файл

RusTuts.com - Как подружиться с любым секвенсором (2013)

с нашего сайта, Вам необходимо Войти на сайт под своим логином! Если у Вас ещё нет логина, тогда Вам нужно сначала Зарегистрироваться!

Как скачивать? · Что такое торрент? · Рейтинг и ограничения

Показать сообщения:    
Ответить на тему

RusTuts.com - Как подружиться с любым секвенсором (2013) скачать торрент (torrent), видеоуроки, тренинги, обучающее видео и видеокурсы

Текущее время: Сегодня 19:37

Часовой пояс: GMT + 4



Вы не можете начинать темы
Вы не можете отвечать на сообщения
Вы не можете редактировать свои сообщения
Вы не можете удалять свои сообщения
Вы не можете голосовать в опросах
Вы не можете прикреплять файлы к сообщениям
Вы не можете скачивать файлы