Специалист - Zend Framework 2. Расширенные возможности (2012)

Ответить на тему
 
Автор Сообщение

Yulya ®

-Специалист - Zend Framework 2. Расширенные возможности (2012)- Автор (режиссер): Специалист
Название: Zend Framework 2. Расширенные возможности
Год выпуска: 2012
Жанр: Программирование
Продолжительность: 11:11:07
Качество видео: PCRec
Видеокодек: VC-1
Битрейт видео: ~265 kb/s, 30,000 FPS
Размер кадра: 1024х768
Аудиокодек: WMA
Битрейт аудио: 102 kb/s (CBR), 2 Ch, 44100 Hz
Описание:
Zend Framework 2 – библиотека классов с открытым исходным кодом, в основу которого положен принцип «крайней простоты». ZF2 помогает упростить процесс разработки и позволяет повысить конкурентоспособность и продуктивность разработчика. Использование набора настраиваемых классов PHP, ZF2 обеспечивает надежную функциональность и подходит как для больших, так и для малых задач.

Программа курса

Модуль 1. Обзор Концепции
  • Шаблон проектирования MVC
  • Плагины
  • Zend_Form
  • Декораторы форм
  • Zend_Acl и Zend_Auth
  • Database Connectivity
Модуль 2. Разработка и тестирование
  • Zend_Application
  • Zend_Tool
  • Zend_Test
Модуль 3. «Насыщенные» интернет-приложений
  • Zend_Dojo
  • Zend_Json
  • Web Services
Модуль 4. Интерактивные приложения
  • Zend_Feed
  • Zend_Paginator
  • Zend_Pdf
  • Zend_Search_Lucene
  • Zend_Mail
Модуль 5. Масштабируемые, гибкие и высокопроизводительные системы
  • Zend_Cache
  • Modularization
  • Zend_Navigation
  • Zend_Queue

По окончании курса Вы будете уметь:

  • Разрабатывать и тестировать приложения при помощи инструментов ZendFramework 2;
  • Создавать насыщенные интернет-приложения;
  • Создавать интерактивные приложения;
  • Создавать масштабируемые, гибкие и высокопроизводительные системы

MediaInfo:

Общее
Полное имя : D:\Загрузки\Zend Framework 2. Расширенные возможности\zend2_day1.wmv
Формат : Windows Media
Размер файла : 890 Мбайт
Продолжительность : 5 ч. 23 м.
Режим общего битрейта : Переменный
Общий поток : 384 Кбит/сек
Максимальный общий битрейт : 1982 Кбит/сек
Название фильма : zend2_day1
Дата кодирования : UTC 2013-09-22 16:30:06.474
Видео
Идентификатор : 2
Формат : VC-1
Профиль формата : MP@HL
Идентификатор кодека : WMV3
Идентификатор кодека/Информация : Windows Media Video 9
Идентификатор кодека/Подсказка : WMV3
Описание кодека : Windows Media Video 9
Продолжительность : 5 ч. 23 м.
Вид битрейта : Переменный
Битрейт : 265 Кбит/сек
Ширина : 1024 пикселя
Высота : 768 пикселей
Соотношение сторон : 4:3
Частота кадров : 30,000 кадров/сек
Цветовое пространство : YUV
Субдискретизация насыщенности : 4:2:0
Битовая глубина : 8 бит
Тип развёртки : Прогрессивная
Метод сжатия : С потерями
Бит/(Пиксели*Кадры) : 0.011
Размер потока : 614 Мбайт (69%)
Язык : English (US)
Аудио
Идентификатор : 1
Формат : WMA
Версия формата : Version 2
Идентификатор кодека : 161
Идентификатор кодека/Информация : Windows Media Audio
Описание кодека : Windows Media Audio 9.2 - VBR Quality 90, 44 kHz, stereo 1-pass VBR
Продолжительность : 5 ч. 23 м.
Вид битрейта : Переменный
Битрейт : 102 Кбит/сек
Каналы : 2 канала
Частота : 44,1 КГц
Битовая глубина : 16 бит
Размер потока : 237 Мбайт (27%)
Язык : English (US)
Скриншоты:
Скачать .torrent

Для того, чтобы скачать торрент-файл

Специалист - Zend Framework 2. Расширенные возможности (2012)

с нашего сайта, Вам необходимо Войти на сайт под своим логином! Если у Вас ещё нет логина, тогда Вам нужно сначала Зарегистрироваться!

Как скачивать? · Что такое торрент? · Рейтинг и ограничения

Показать сообщения:    
Ответить на тему

Специалист - Zend Framework 2. Расширенные возможности (2012) скачать торрент (torrent), видеоуроки, тренинги, обучающее видео и видеокурсы

Текущее время: Сегодня 10:56

Часовой пояс: GMT + 4



Вы не можете начинать темы
Вы не можете отвечать на сообщения
Вы не можете редактировать свои сообщения
Вы не можете удалять свои сообщения
Вы не можете голосовать в опросах
Вы не можете прикреплять файлы к сообщениям
Вы не можете скачивать файлы