Вадим Жилюк - Техника сверхскоростного рерайтинга (2013)

Ответить на тему
 
Автор Сообщение

Yulya ®

-Вадим Жилюк - Техника сверхскоростного рерайтинга (2013)- Автор (режиссер): Вадим Жилюк
Название: Техника сверхскоростного рерайтинга
Год выпуска: 2013
Страница курса: http://copywriting-md.com.ua/rewriting
Продолжительность: 01:21:46
Жанр: Обучающее видео
Качество видео: PCRec
Видеокодек: AVC
Битрейт видео: ~35,4 Кбит/сек
Размер кадра: 900 х 720
Аудиокодек: AAC
Битрейт аудио: 53,6 Кбит/сек
Описание:
Пишете одну статью полдня? Не переживайте, эта проблема легко решается. Представьте, что на написание одной статьи у Вас уходит всего 15 минут. Получается, на создание 10 текстов Вам понадобится всего 2 часа 30 минут. Подумайте, в таком случае Вы могли бы размещать на продажу несколько сотен статей в месяц и зарабатывать хорошую прибавку к своей зарплате. Причем, эти статьи будут действительно качественными, покупатели оценят их по достоинству.
После прохождения обучающего видеокурса Вы сможете:
Делать рерайт одной статьи за 15 минут
Продавать несколько сотен статей ежемесячно
Избавиться от синдрома хронической денежной недостаточности
Накопить денег на шикарный отпуск, хороший ремонт или дорогую покупку.

Что внутри?

Видеокурс представляет собой пошаговую инструкцию. Это готовая система заработка денег, которую Вам нужно всего лишь изучить и внедрить. И Вы можете получить ее уже через несколько минут. Видеокурс состоит из 5 видеоуроков и бонусного видео.
Урок 1. Сверхскоростной рерайтинг: теория. В этом видеоуроке я расскажу Вам, какие трюки можно использовать для быстрого рерайтинга статьи.
Урок 2. Сверхскоростной рерайтинг: практика. Здесь я наглядно продемонстрирую все эти трюки, каждый из них по очереди применив к одному текстовому фрагменту.
Урок 3. Делаем рерайт статьи. В этом видеоуроке я буду на Ваших глазах, в режиме реального времени, рерайтить случайную статью, скопированную из Интернета. Естественно, при помощи техники сверхскоростного рерайтинга.
Урок 4. Как выбрать статью для рерайта? Очень важный урок, в котором я подробно расскажу, какие статьи лучше вибирать для рерайтинга, чтобы в дальнейшем их можно было продать быстрее и дороже.
Урок 5. Оптимизация процесса. Заключительный видеоурок, из которого Вы узнаете, как правильно наладить свою работу, чтобы тратить минимум времени на весь процесс заработка.
Бонусное видео. Чтобы зарабатывать, мало умения быстро создавать статьи. Нужно еще уметь их продавать. Я расскажу Вам о пяти способах, которые помогут Вам повысить скорость продажи статей в несколько раз.

Дополнительная информация:

Бонус: Базовый видеокурс для начинающего копирайтера
Размер: 297.42 Mb

MediaInfo

Общее
Формат : MPEG-4
Профиль формата : Base Media / Version 2
Идентификатор кодека : mp42
Общий поток : 102 Кбит/сек
Дата кодирования : UTC 2013-07-12 18:07:02
Дата пометки : UTC 2013-07-12 18:07:02
Видео
Идентификатор : 1
Формат : AVC
Формат/Информация : Advanced Video Codec
Профиль формата : [url=mailto:High@L3.1]High@L3.1[/url]
Параметр CABAC формата : Да
Параметр ReFrames формата : 4 кадра
Идентификатор кодека : avc1
Идентификатор кодека/Информация : Advanced Video Coding
Продолжительность : 5 м. 6 с.
Продолжительность оригинала : 5 м. 6 с.
Битрейт : 35,4 Кбит/сек
Ширина : 900 пикселей
Высота : 720 пикселей
Соотношение сторон : 5:4
Режим частоты кадров : Постоянный
Частота кадров : 15,000 кадров/сек
Цветовое пространство : YUV
Субдискретизация насыщенности : 4:2:0
Битовая глубина : 8 бит
Тип развёртки : Прогрессивная
Бит/(Пиксели*Кадры) : 0.004
Размер потока : 1,29 Мбайт (35%)
Размер потока оригинала : 1,69 Мбайт (45%)
Язык : English
Дата кодирования : UTC 2013-07-12 18:07:02
Дата пометки : UTC 2013-07-12 18:07:02
Основные цвета : BT.709
Характеристики трансфера : BT.709
Коэффициенты матрицы : BT.709
mdhd_Duration : 306140
Аудио
Идентификатор : 2
Формат : AAC
Формат/Информация : Advanced Audio Codec
Профиль формата : LC
Идентификатор кодека : 40
Продолжительность : 5 м. 6 с.
Продолжительность оригинала : 5 м. 6 с.
Вид битрейта : Постоянный
Битрейт : 53,6 Кбит/сек
Каналы : 2 канала
Расположение каналов : Front: L R
Частота : 44,1 КГц
Метод сжатия : С потерями
Размер потока : 1,96 Мбайт (53%)
Размер потока оригинала : 1,96 Мбайт (53%)
Язык : English
Дата кодирования : UTC 2013-07-12 18:07:02
Дата пометки : UTC 2013-07-12 18:07:02
mdhd_Duration : 306198
Скриншоты:
Скачать .torrent

Для того, чтобы скачать торрент-файл

Вадим Жилюк - Техника сверхскоростного рерайтинга (2013)

с нашего сайта, Вам необходимо Войти на сайт под своим логином! Если у Вас ещё нет логина, тогда Вам нужно сначала Зарегистрироваться!

Как скачивать? · Что такое торрент? · Рейтинг и ограничения

t_smirnova71@mail.ru

Курс был хорош в те, видимо, времена, когда он снимался. Сейчас такой рерайтинг не проходит проверку на уникальность. Хотя некоторыми способами можно пользоваться в глубоком рерайтинге.
Мне, как полному профану, он был ценен. Я наделала кучу ошибок (в плане уникальности), несколько часов переделывала текст. Но получила бесценный опыт, как не надо делать, воспользовалась некоторыми советами.
Показать сообщения:    
Ответить на тему

Вадим Жилюк - Техника сверхскоростного рерайтинга (2013) скачать торрент (torrent), видеоуроки, тренинги, обучающее видео и видеокурсы

Текущее время: Сегодня 08:08

Часовой пояс: GMT + 4



Вы не можете начинать темы
Вы не можете отвечать на сообщения
Вы не можете редактировать свои сообщения
Вы не можете удалять свои сообщения
Вы не можете голосовать в опросах
Вы не можете прикреплять файлы к сообщениям
Вы не можете скачивать файлы