Scott Kelby - Профессиональная портретная ретушь для фотографов (2013)

Ответить на тему
 
Автор Сообщение

Yulya ®

-Scott Kelby - Профессиональная портретная ретушь для фотографов (2013)- Автор (режиссер): Scott Kelby
Название: Professional Portrait Retouching Techniques for Photographers / Профессиональная портретная ретушь для фотографов
Год выпуска: 2013
Жанр: Photoshop CS6
Язык: Английский
Продолжительность: 04:33:00
Качество видео: PCRec
Видеокодек: AVC
Битрейт видео: ~1800 Kbps
Размер кадра: 1280x720
Аудиокодек: AAC
Битрейт аудио: 64kbps, 1 Ch, 44100Hz
Описание:
В этой серии из трех частей, Scott Kelby охватывает различные приемы ретуши фотографий.
В первой части подробно рассказано о приемах, используемых для ретуши глаз.
Во второй части, Scott Kelby показывает вам шаг за шагом методы ретуши кожи, включая удаление пятен, темных кругов и различные эффекты для сглаживания и резкости кожи.
В третьей части, показан процесс ретуши волос, зубов и лица.

Содержание:

Часть 1
1. Introduction (02:35)
2. Eyebrow Trimming (09:50)
3. Darkening the Eyebrows (09:03)
4. Fixing Deep Eyes (03:40)
5. Whitening the Eyes (05:05)
6. Upper Eyelashes (07:53)
7. Lower Eyelashes (08:15)
8. Removing Redness (04:37)
9. Adding a Kicker Light (05:57)
10. Creating Catch Lights (09:15)
11. Enhancing Catch Lights (02:27)
12. Eye Enlargements (07:09)
13. Changing Eye Color (04:45)
14. Adding Contrast (03:05)
15. Darkening the Iris (06:27)
16. Sharpening the Eyes (03:35)
17. Conclusion (01:01)
Course Time: 01 Hours 34 Minutes
Часть 2
1. Introduction (01:04)
2. Removing Blemishes (05:31)
3. Skin Softening (09:12)
4. Skin Sharpening (09:34)
5. Removing Dark Circles (10:37)
6. Creating Porcelain Skin (05:19)
7. Removing Hotspots (03:40)
8. Removing Stubble (04:58)
9. Getting the Modern, Desaturated Look for Skin (05:24)
10. Skin Sharpening in Men vs. Women (08:38)
11. Conclusion (00:48)
Course Time: 01 Hours 04 Minutes
Часть 3
1. Introduction (00:28)
2. Adding Hair Highlights (05:56)
3. Fixing Gaps in Hair (09:52)
4. Removing Stray Hairs (06:58)
5. Finding Stray Hairs and Sensor Dust (05:13)
6. Darkening the Hair (05:14)
7. Sculpting the Face (14:00)
8. Modifying the Nose (04:12)
9. Sculpting with Dodging & Burning (09:18)
10. Retouching Teeth (06:55)
11. Retouching Lips (03:12)
12. Retouching Clothes (04:08)
13. Body Slimming (03:46)
14. Retouching from Start to Finish (35:54)
Course Time: 01 Hours 55 Minutes

MI

General
Complete name : 02. Eyebrow Trimming.mp4
Format : MPEG-4
Format profile : Base Media
Codec ID : isom
File size : 131 MiB
Duration : 9mn 50s
Overall bit rate : 1 857 Kbps
Performer : Kelby Media Group
Encoded date : UTC 2012-10-17 12:57:52
Tagged date : UTC 2012-10-17 12:57:52
Writing application : Lavf53.32.100
Copyright : kelbymediagroup.com
Comment : Copyright Kelby Media Group
Video
ID : 1
Format : AVC
Format/Info : Advanced Video Codec
Format profile : [url=mailto:Main@L3.0]Main@L3.0[/url]
Format settings, CABAC : Yes
Format settings, ReFrames : 3 frames
Codec ID : avc1
Codec ID/Info : Advanced Video Coding
Duration : 9mn 50s
Bit rate mode : Variable
Bit rate : 1 800 Kbps
Width : 1 280 pixels
Height : 720 pixels
Display aspect ratio : 16:9
Frame rate mode : Constant
Frame rate : 29.970 fps
Color space : YUV
Chroma subsampling : 4:2:0
Bit depth : 8 bits
Scan type : Progressive
Bits/(Pixel*Frame) : 0.065
Stream size : 126 MiB (96%)
Writing library : x264 core 120
Encoding settings : cabac=1 / ref=3 / deblock=1:0:0 / analyse=0x1:0x111 / me=hex / subme=6 / psy=0 / mixed_ref=0 / me_range=16 / chroma_me=1 / trellis=1 / 8x8dct=0 / cqm=0 / deadzone=21,11 / fast_pskip=1 / chroma_qp_offset=0 / threads=12 / sliced_threads=0 / nr=0 / decimate=1 / interlaced=0 / bluray_compat=0 / constrained_intra=0 / bframes=3 / b_pyramid=0 / b_adapt=1 / b_bias=0 / direct=1 / weightb=0 / open_gop=0 / weightp=2 / keyint=150 / keyint_min=76 / scenecut=0 / intra_refresh=0 / rc=2pass / mbtree=0 / bitrate=1800 / ratetol=1.0 / qcomp=0.60 / qpmin=10 / qpmax=51 / qpstep=4 / cplxblur=20.0 / qblur=0.5 / ip_ratio=1.40 / pb_ratio=1.30 / aq=1:1.00
Language : English
Encoded date : UTC 2012-10-17 12:57:52
Tagged date : UTC 2012-10-17 12:57:52
Audio
ID : 2
Format : AAC
Format/Info : Advanced Audio Codec
Format profile : LC
Codec ID : 40
Duration : 9mn 50s
Bit rate mode : Constant
Bit rate : 64.0 Kbps
Channel(s) : 1 channel
Channel positions : Front: C
Sampling rate : 44.1 KHz
Compression mode : Lossy
Stream size : 4.50 MiB (3%)
Language : English
Encoded date : UTC 2012-10-17 12:57:52
Tagged date : UTC 2012-10-17 12:57:52
Скриншоты:
Скачать .torrent

Для того, чтобы скачать торрент-файл

Scott Kelby - Профессиональная портретная ретушь для фотографов (2013)

с нашего сайта, Вам необходимо Войти на сайт под своим логином! Если у Вас ещё нет логина, тогда Вам нужно сначала Зарегистрироваться!

Как скачивать? · Что такое торрент? · Рейтинг и ограничения

Показать сообщения:    
Ответить на тему

Scott Kelby - Профессиональная портретная ретушь для фотографов (2013) скачать торрент (torrent), видеоуроки, тренинги, обучающее видео и видеокурсы

Текущее время: Сегодня 16:40

Часовой пояс: GMT + 4



Вы не можете начинать темы
Вы не можете отвечать на сообщения
Вы не можете редактировать свои сообщения
Вы не можете удалять свои сообщения
Вы не можете голосовать в опросах
Вы не можете прикреплять файлы к сообщениям
Вы не можете скачивать файлы