Артур Жур - Современный интернет-магазин с нуля (2013)

Ответить на тему
 
Автор Сообщение

Yulya ®

-Артур Жур - Современный интернет-магазин с нуля (2013)- Автор (режиссер): Артур Жур
Название: Современный интернет-магазин с нуля
Год выпуска: 2013
Жанр: Програмирование, бизнес
Продолжительность: 25:01:00
Качество видео: PCRec ISO-образ
Видеокодек: AVC
Битрейт видео: ~2327 kb/s, 10,000 FPS
Размер кадра: 1280x720
Аудиокодек: AAC
Битрейт аудио: 93,6 kb/s (CBR), 2 Ch, 44100 Hz
Описание:
Представляем Вам новейший обучающий видеокурс, из которого вы узнаете все секреты и профессиональные моменты создания современного интернет магазина с нуля!
После прохождения видеокурса Вы научитесь работать с такими языками как PHP, Базами MySQL, JQuery и Ajax. Если Вы даже не знакомы с такими языками или вообще новичок в сайтостроении, то данный видеокурс отлично Вам подойдёт и в процессе обучения Вы узнаете как создать свой интернет-магазин под ключ, тоесть, мы с Вами пройдём путь от создания дизайна до подключения платёжных сервисов к магазину. После прохождения курса Вы с полной уверенностью сможете открыть свой интернет-магазин!
Чтобы удобно работать с продуктом нажмите на файл - index.html

Характеристики видеокурса:

› Формат — 62 видеоурока.
› Объем — 18 ГБ.
› Продолжительность — 25 часов.
› 100% качество видео и звука!
› 100% авторская разработка!
› Пошаговое обучение!
› Гарантия результата!

Содержание Видеокурса:

Часть 1. Дизайн сайта, HTML и CSS разметка
• Подготовка
• Разметка сайта
• Верхняя навигация
• Логотип и Информационный блок
• Поиск товаров
• Средняя навигация
• Блок - Категории товаров
• Блок - Ввыбор по параметрам
• Блок - Новости и акции
• Футер (низ сайта)
• Навигационная цепочка, вид товаров и сортировка
Часть 2. База данных и Программирование сайта
• Архитектура БД сайта
• Вывод товаров с БД
• Вид товаров
• Сортировка товаров
• Блок - категории товаров
• Вывод товаров по категориям
• Выбор товаров по фильтру
• Блок - Новости и Акции
• Постраничная навигация товаров
• Регистрация. Часть 1
• Регистрация. Часть 2
• Авторизация. Часть 1
• Авторизация. Часть 2
• Восстановление забытого пароля
• Профиль и изменение профиля
• Поиск товаров
• Айстопперы - Новинки, лидеры продаж, распродажа
• Корзина товаров
• Способ доставки и контактная информация
• Асинхронное добавление товара в корзину
• Асинхронное изменение количества товаров
• Вывод информации о товаре
• Вывод миниатюрных изображений
• Вывод описания и характеристик
• Отзывы к товарам
• Рейтинг товаров. Своя кнопка Like
• Вывод случайных и популярных товаров
• Форма обратной связи
• Защита Интернет-Магазина
• Завершающий урок. Мелкие доработки
Часть 3. Панель управления Интернет-Магазина
• Авторизация
• HTML и CSS разметка
• Вывод товаров Интернет-Магазина
• Добавление товара. Часть 1
• Добавление товара. Часть 2
• Изменение товара
• Вывод отзывов и модерация
• Категории товаров. Добавление и удаление
• Вывод Зарегистрированных клиентов
• Новостной блок. Добавление и удаление новостей
• Добавление администраторов
• Вывод и изменение администраторов
• Вывод и просмотр заказов
• Общая статистика и статистика продаж
• Уведомления о новых заказах и отзывах
• Привилегии администраторов и права доступа
Часть 4. Подключение платёжных сервисов к Интернет-Магазину
• Платежный сервис. Подключение Интернет-Магазина
• Скрипт оплаты. Обзор и установка
• Проверка Скрипта. Оплачиваем товар

Бонусы:

1. Авторизация через Соц.Сети, Блоги, Видеохостинги, Почтовые сервисы и Платёжные системы
В этом бесплатном видеоуроке, Вы узнаете как реализовать авторизацию на своём сайте через популярные сервисы и соц.сети.
2. Урок по созданию красивых и интуитивных ссылок для вашего сайта (ЧПУ)
Урок посвящён реализации понятного для восприятия человеком URL. Мы на примере разберём как внедрить на свой сайт красивый и понятный URL, тем самым избавив себя от невзрачных и непонятных Урлов. Я подробно расскажу все этапы построения ЧПУ, разберём все возможные ошибки и трудности которые могут встретиться на Вашем пути.

MediaInfo

Общее
Полное имя : E:\video\1\1-1\1.1.mp4
Формат : MPEG-4
Профиль формата : Base Media / Version 2
Идентификатор кодека : mp42
Размер файла : 61,3 Мбайт
Продолжительность : 3 м. 32 с.
Общий поток : 2422 Кбит/сек
Дата кодирования : UTC 2013-07-22 13:22:56
Дата пометки : UTC 2013-07-22 13:22:56
Видео
Идентификатор : 1
Формат : AVC
Формат/Информация : Advanced Video Codec
Профиль формата : [url=mailto:High@L4.0]High@L4.0[/url]
Параметр CABAC формата : Да
Параметр ReFrames формата : 4 кадра
Параметр GOP формата : M=1, N=10
Идентификатор кодека : avc1
Идентификатор кодека/Информация : Advanced Video Coding
Продолжительность : 3 м. 32 с.
Продолжительность оригинала : 3 м. 32 с.
Битрейт : 2327 Кбит/сек
Ширина : 1280 пикселей
Высота : 720 пикселей
Соотношение сторон : 16:9
Режим частоты кадров : Постоянный
Частота кадров : 10,000 кадров/сек
Цветовое пространство : YUV
Субдискретизация насыщенности : 4:2:0
Битовая глубина : 8 бит
Тип развёртки : Прогрессивная
Бит/(Пиксели*Кадры) : 0.253
Размер потока : 58,8 Мбайт (96%)
Размер потока оригинала : 58,8 Мбайт (96%)
Язык : English
Дата кодирования : UTC 2013-07-22 13:22:56
Дата пометки : UTC 2013-07-22 13:22:56
Основные цвета : BT.709
Характеристики трансфера : BT.709
Коэффициенты матрицы : BT.709
mdhd_Duration : 212104
Аудио
Идентификатор : 2
Формат : AAC
Формат/Информация : Advanced Audio Codec
Профиль формата : LC
Идентификатор кодека : 40
Продолжительность : 3 м. 32 с.
Продолжительность оригинала : 3 м. 32 с.
Вид битрейта : Постоянный
Битрейт : 93,6 Кбит/сек
Каналы : 2 канала
Расположение каналов : Front: L R
Частота : 44,1 КГц
Метод сжатия : С потерями
Размер потока : 2,37 Мбайт (4%)
Размер потока оригинала : 2,37 Мбайт (4%)
Язык : English
Дата кодирования : UTC 2013-07-22 13:22:56
Дата пометки : UTC 2013-07-22 13:22:56
mdhd_Duration : 212142
Скриншоты:
Скачать .torrent

Для того, чтобы скачать торрент-файл

Артур Жур - Современный интернет-магазин с нуля (2013)

с нашего сайта, Вам необходимо Войти на сайт под своим логином! Если у Вас ещё нет логина, тогда Вам нужно сначала Зарегистрироваться!

Как скачивать? · Что такое торрент? · Рейтинг и ограничения

BaikalSmen

Здравствуйте! проверьте раздачу пожалуйста! Скачал но файл не определяется, торрент показывает что всё норм, горит зелёниньким на раздаче, но не знаю раздаёт или нет.
Вообщем одним файлом непонятным скачался и чем его открыть не понятно(

Jama82

deamon tools нужно для открыт
Показать сообщения:    
Ответить на тему

Артур Жур - Современный интернет-магазин с нуля (2013) скачать торрент (torrent), видеоуроки, тренинги, обучающее видео и видеокурсы

Текущее время: Сегодня 15:42

Часовой пояс: GMT + 4



Вы не можете начинать темы
Вы не можете отвечать на сообщения
Вы не можете редактировать свои сообщения
Вы не можете удалять свои сообщения
Вы не можете голосовать в опросах
Вы не можете прикреплять файлы к сообщениям
Вы не можете скачивать файлы