Дмитрий Охрименко - Видео урок. Введение в HTML&CSS (2013)

Ответить на тему
 
Автор Сообщение

Yulya ®

-Дмитрий Охрименко - Видео урок. Введение в HTML&CSS (2013)- Автор (режиссер): Дмитрий Охрименко
Название: Видео курс. Введение в HTML&CSS
Год выпуска: 2013
Производитель: CyberBionic Systematics
Жанр: Видео курс
Продолжительность: 00:51:34
Качество видео: DVDRip
Видеокодек: AVC1/H.264
Битрейт видео: ~50 Kbps
Размер кадра: 1280*720
Аудиокодек: AAC
Битрейт аудио: 44,100 Hz, 2 Ch, 16 bits, 1411 Kbps
Описание:
Видео курс насыщен не только богатством материала, необходимого, как начинающему, так и профессиональному верстальщику, но и многими фактами как из прошлого веб технологий так и тем, которые произойдут в скором времени. К примеру, на первом уроке сперва рассматриваются исторические этапы развития HTML разметки, а во второй половине уже идет речь о синтаксисе языка и об основных тегах форматирования текста. Каждый урок учащимся выдаются увлекательные домашние задания для закрепления материала пройденного на уроке. Часто, решения примененные в домашних заданиях, по словам студентов, они применяли в последствии при верстке уже делая серьезные проекты на работе.
На этом видео уроке Вы узнаете:
Основы языка HTML;
Понятие элемента и теги;
Теги, которые используются при форматировании текста;
Работа со ссылками и их использование.

MediaInfo

Формат : MPEG-4
Профиль формата : Base Media / Version 2
Идентификатор кодека : mp42
Размер файла : 124 Мбайт
Продолжительность : 51 м.
Режим общего битрейта : Переменный
Общий поток : 337 Кбит/сек
Дата кодирования : UTC 2013-06-16 04:22:41
Дата пометки : UTC 2013-06-16 04:22:41
Видео
Идентификатор : 1
Формат : AVC
Формат/Информация : Advanced Video Codec
Профиль формата : [url=mailto:Main@L3.1]Main@L3.1[/url]
Параметр CABAC формата : Да
Параметр ReFrames формата : 3 кадра
Идентификатор кодека : avc1
Идентификатор кодека/Информация : Advanced Video Coding
Продолжительность : 51 м.
Продолжительность оригинала : 51 м.
Вид битрейта : Переменный
Битрейт : 208 Кбит/сек
Ширина : 1280 пикселей
Высота : 720 пикселей
Соотношение сторон : 16:9
Режим частоты кадров : Переменный
Частота кадров : 30,000 кадров/сек
Минимальная частота кадров : 30,000 кадров/сек
Максимальная частота кадров : 30,030 кадров/сек
Стандарт вещания : NTSC
Цветовое пространство : YUV
Субдискретизация насыщенности : 4:2:0
Битовая глубина : 8 бит
Тип развёртки : Прогрессивная
Бит/(Пиксели*Кадры) : 0.008
Размер потока : 76,9 Мбайт (62%)
Размер потока оригинала : 76,9 Мбайт (62%)
Язык : English
Дата кодирования : UTC 2013-06-16 04:22:41
Дата пометки : UTC 2013-06-16 04:22:41
mdhd_Duration : 3094300
Аудио
Идентификатор : 2
Формат : AAC
Формат/Информация : Advanced Audio Codec
Профиль формата : LC
Идентификатор кодека : 40
Продолжительность : 51 м.
Продолжительность оригинала : 51 м.
Вид битрейта : Переменный
Битрейт : 126 Кбит/сек
Максимальный битрейт : 228 Кбит/сек
Каналы : 2 канала
Расположение каналов : Front: L R
Частота : 44,1 КГц
Метод сжатия : С потерями
Размер потока : 46,4 Мбайт (37%)
Размер потока оригинала : 46,4 Мбайт (37%)
Язык : English
Дата кодирования : UTC 2013-06-16 04:22:41
Дата пометки : UTC 2013-06-16 04:22:41
mdhd_Duration : 3094338
Скриншоты:
Скачать .torrent

Для того, чтобы скачать торрент-файл

Дмитрий Охрименко - Видео урок. Введение в HTML&CSS (2013)

с нашего сайта, Вам необходимо Войти на сайт под своим логином! Если у Вас ещё нет логина, тогда Вам нужно сначала Зарегистрироваться!

Как скачивать? · Что такое торрент? · Рейтинг и ограничения

Показать сообщения:    
Ответить на тему

Дмитрий Охрименко - Видео урок. Введение в HTML&CSS (2013) скачать торрент (torrent), видеоуроки, тренинги, обучающее видео и видеокурсы

Текущее время: Сегодня 03:56

Часовой пояс: GMT + 4



Вы не можете начинать темы
Вы не можете отвечать на сообщения
Вы не можете редактировать свои сообщения
Вы не можете удалять свои сообщения
Вы не можете голосовать в опросах
Вы не можете прикреплять файлы к сообщениям
Вы не можете скачивать файлы