Дмитрий Карякин - Защищаем сеть от DDoS-атак (2013)

Ответить на тему
 
Автор Сообщение

Yulya ®

-Дмитрий Карякин - Защищаем сеть от DDoS-атак (2013)- Автор (режиссер): Дмитрий Карякин
Название: Защищаем сеть от DDoS-атак
Год выпуска: 2013
Жанр: Обучение / Сетевая безопасность
Продолжительность: 01:16:00
Качество видео: WEB-DLRip
Видеокодек: MPEG4 (AVC)
Битрейт видео: ~4 204 Kbps
Размер кадра: 1280х720
Аудиокодек: AC3 2.0
Битрейт аудио: 192 Kbps
Описание:
Дмитрий Карякин – senior systems engineer компании Juniper Networks (Russia), имеет более 9 лет опыта эксплуатации и проектирования пакетных сетей передачи данных, кандидат технических наук, сертифицированный специалист Juniper Networks Certified Professional (JNCIP-ENT).
DDoS-атака – это одна из самых серьезных и распространенных сетевых угроз, с которой сталкиваются современные компании. Проблема касается абсолютно любых предприятий, имеющих собственные сетевые ресурсы, и является особенно актуальной для компаний, которые предоставляют сервисы и услуги с публичным доступом – хостингов и операторов связи. В рамках вебинара старший системный инженер компании Juniper Networks Дмитрий Карякин расскажет о том, как защитить сеть от DDoS-атак при помощи решений Juniper.

Содержание вебинара:

На вебинаре вы узнаете:
Механизм действия DDoS-атаки
Что случится с web-сервером во время DDoS-атаки
Какое решение предлагает компания Juniper Networks для защиты от DDoS-атак
Как защититься от DDoS-атаки с помощью решения Juniper Networks
Устройство продукта Junos DDoS Secure
Интерфейс управления и мониторинга системы защиты в действии
Почему это важно?
Решения для защиты от DDoS-атак являются неотъемлемой компонентой сетевой инфраструктуры ЦОД, которые предоставляют сервисы и услуги с публичным доступом. Проблема является актуальной как для операторов связи, хостинговых компаний, так и для предприятий, имеющих собственные сетевые ресурсы.
DDoS (Distributed Denial of Service) – распределенная атака "отказ в обслуживании", направленная на сетевые ресурсы с целью блокировки работоспособности для легитимных пользователей. Актуальность защиты публичных веб-серверов от таких атак стремительно растет с увеличением производительности и усложнением интеллекта алгоритмов, которые применяют злоумышленники. На вебинаре будет продемонстрировано решение проблемы, предложенное ведущим производителем телекоммуникационного оборудования – компанией Juniper Networks.
В программе вебинара:
Механизм действия DDoS-атаки
Алгоритм защиты от DDoS-атак
Обзор продукта Junos DDoS Secure
Демонстрация интерфейса управления и конфигурация Junos DDoS Secure
Демонстрация защиты web-сервера от DDoS

MediaInfo:

General
Format : MPEG-4
Format profile : Base Media / Version 2
Codec ID : mp42
File size : 496 MiB
Duration : 1h 16mn
Overall bit rate : 901 Kbps
Encoded date : UTC 2013-11-06 09:17:06
Tagged date : UTC 2013-11-06 09:17:06
Video
ID : 1
Format : AVC
Format/Info : Advanced Video Codec
Format profile : [url=mailto:High@L3.1]High@L3.1[/url]
Format settings, CABAC : Yes
Format settings, ReFrames : 1 frame
Codec ID : avc1
Codec ID/Info : Advanced Video Coding
Duration : 1h 16mn
Bit rate mode : Variable
Bit rate : 706 Kbps
Maximum bit rate : 4 204 Kbps
Width : 1 280 pixels
Height : 720 pixels
Display aspect ratio : 16:9
Frame rate mode : Constant
Frame rate : 29.970 fps
Color space : YUV
Chroma subsampling : 4:2:0
Bit depth : 8 bits
Scan type : Progressive
Bits/(Pixel*Frame) : 0.026
Stream size : 389 MiB (78%)
Tagged date : UTC 2013-11-06 09:19:39
Audio
ID : 2
Format : AAC
Format/Info : Advanced Audio Codec
Format profile : LC
Codec ID : 40
Duration : 1h 16mn
Bit rate mode : Variable
Bit rate : 192 Kbps
Maximum bit rate : 201 Kbps
Channel(s) : 2 channels
Channel positions : Front: L R
Sampling rate : 44.1 KHz
Compression mode : Lossy
Stream size : 106 MiB (21%)
Title : IsoMedia File Produced by Google, 5-11-2011
Encoded date : UTC 2013-11-06 09:18:30
Tagged date : UTC 2013-11-06 09:19:39
Скачать .torrent

Для того, чтобы скачать торрент-файл

Дмитрий Карякин - Защищаем сеть от DDoS-атак (2013)

с нашего сайта, Вам необходимо Войти на сайт под своим логином! Если у Вас ещё нет логина, тогда Вам нужно сначала Зарегистрироваться!

Как скачивать? · Что такое торрент? · Рейтинг и ограничения

donvital

Большое спасибо!
Показать сообщения:    
Ответить на тему

Дмитрий Карякин - Защищаем сеть от DDoS-атак (2013) скачать торрент (torrent), видеоуроки, тренинги, обучающее видео и видеокурсы

Текущее время: Сегодня 06:19

Часовой пояс: GMT + 4



Вы не можете начинать темы
Вы не можете отвечать на сообщения
Вы не можете редактировать свои сообщения
Вы не можете удалять свои сообщения
Вы не можете голосовать в опросах
Вы не можете прикреплять файлы к сообщениям
Вы не можете скачивать файлы