Станислав Бойко - PHP + SQLite3. Создание CMS системы с нуля (2013)

Ответить на тему
 
Автор Сообщение

Yulya ®

-Станислав Бойко - PHP + SQLite3. Создание CMS системы с нуля (2013)- Автор (режиссер): Станислав Бойко
Название: PHP + SQLite3. Создание CMS системы с нуля
Год выпуска: 2013
Жанр: Обучающий видеокурс
Продолжительность: 06:37:24
Качество видео: PCRec
Видеокодек: TSCC
Битрейт видео: ~183 Kbps 10fps
Размер кадра: 1048x692
Аудиокодек: PCM
Битрейт аудио: 22050Hz mono 352kbps
Описание:
Вашему вниманию представляется обучающий видеокурс «PHP + SQLite3. Создание CMS системы с нуля», с помощью которого Вы узнаете как подключать текстовый редактор, как создать шаблонизатор, сможете написать поиск по сайту и создать CMS систему с нуля.
Этот обучающий видеокурс будет полезен каждому желающему научиться создавать свои сайты, а собственная CMS это отличная возможность избавиться от многих проблем, ведь это практически готовый сайт, который останется всего лишь настроить под Ваши требования. Вас ждет 12 обучающих видеоуроков, которые расскажут Вам о том, как создать свою собственную CMS при помощи PHP и SQLite3.

Дополнительная информация:

Содержание видеокурса «PHP + SQLite3. Создание CMS системы с нуля»:
Проектирование проекта
Структурирование Базы данных проекта
Конфигурирование проекта Создание ядра системы
Написание шаблонизатора с нуля
Создание админ-панели
Работа с новостями
Подключение текстового редактора
Вывод новостей на странице
Работа с временной меткой
Работа с файлами
Гибкие настройки CMS системы
Поиск по сайту

MI

Общее
Полное имя : D:\Андрей\sozd.cms.s.nulya\
Формат : AVI
Формат/Информация : Audio Video Interleave
Размер файла : 71,7 Мбайт
Общий поток : 540 Кбит/сек
Видео
Идентификатор : 0
Формат : TechSmith
Идентификатор кодека : tscc
Идентификатор кодека/Информация : TechSmith Screen Capture
Битрейт : 183 Кбит/сек
Ширина : 1048 пикселей
Высота : 692 пикселя
Соотношение сторон : 3:2
Частота кадров : 10,000 кадров/сек
Бит/(Пиксели*Кадры) : 0.025
Размер потока : 24,4 Мбайт (34%)
Аудио
Идентификатор : 1
Формат : PCM
Параметр Endianness формата : Little
Параметр Sign формата : Signed
Идентификатор кодека : 1
Вид битрейта : Постоянный
Битрейт : 352,8 Кбит/сек
Каналы : 1 канал
Частота : 22,05 КГц
Битовая глубина : 16 бит
Размер потока : 46,8 Мбайт (65%)
Продолжительность промежутка : 1000 мс. (10,00 видеокадров)
Время предзагрузки промежутка : 749 мс.
Скриншоты:
Скачать .torrent

Для того, чтобы скачать торрент-файл

Станислав Бойко - PHP + SQLite3. Создание CMS системы с нуля (2013)

с нашего сайта, Вам необходимо Войти на сайт под своим логином! Если у Вас ещё нет логина, тогда Вам нужно сначала Зарегистрироваться!

Как скачивать? · Что такое торрент? · Рейтинг и ограничения

Показать сообщения:    
Ответить на тему

Станислав Бойко - PHP + SQLite3. Создание CMS системы с нуля (2013) скачать торрент (torrent), видеоуроки, тренинги, обучающее видео и видеокурсы

Текущее время: Сегодня 22:14

Часовой пояс: GMT + 4



Вы не можете начинать темы
Вы не можете отвечать на сообщения
Вы не можете редактировать свои сообщения
Вы не можете удалять свои сообщения
Вы не можете голосовать в опросах
Вы не можете прикреплять файлы к сообщениям
Вы не можете скачивать файлы