RusTuts.com - Анализаторы (2013)

Ответить на тему
 
Автор Сообщение

Yulya ®

-RusTuts.com - Анализаторы (2013)- Автор (режиссер): RusTuts.com
Название: Анализаторы
Год выпуска: 2013
Жанр: Работа со звуком
Язык: Русский
Продолжительность: 00:55:00
Качество видео: PCRec
Видеокодек: AVC/H.264
Битрейт видео: ~1 103 Kbps, 25.000 fps
Размер кадра: 1280x720, 16:9
Аудиокодек: AAC
Битрейт аудио: 326 Kbps (VBR), 2 channels, 44.1 KHz
Описание: Конечно, ничто не заменит ваш профессиональных слух, именно на него следует опираться, принимая окончательные решения. Однако часто бывает так, сидишь в своей студии и всё звучит прекрасно, но стоит только поставить свой микс в машине, в клубе, послушать на мобильном, так звучание далеко от ожидаемого. Какой-нибудь инструмент выпирает, других не слышно, на мониторах казалось широко, а в наушниках неприятно слушать, казалось низких частот достаточно, а в машине их совсем нет, вроде бы RMS нормальное, но в других местах, звучит заметно тише коммерческих записей. Согласитесь, что легче выявить все проблемы сразу, чем несколько раз возвращаться, долго искать проект, открывать его, изменять что-то в нём, а потом опять нарваться на какие-нибудь другие ошибки. Поэтому лучше выявлять ошибки сразу при сведении и на стадии мастеринга. В этом нам помогут наши хорошие друзья – спектральные анализаторы.

Содержание:

Раздел 1. Анализ динамического диапазона
01. Что такое децибел
02. Чем отличается пик от трансиента
03. True Peak
04. Калибровка мониторов и K-System
05. Как объективно оценить громкость трека
06. Ebu tech 3341. Ответы на вопросы
Раздел 2. Анализ спектрального баланса
01. Нелинейное восприятие громкости
02. Удобный и практичный FreqAnalyst Pro
03. Обнаружение проблем спектрального баланса
04. Подстраиваем анализатор фабфильтра Pro-Q под себя
Раздел 3. Анализ стереообраза
01. Эффект Хааса и врЕменная маскировка
02. Как работает вектороскоп
03. Объективный взгляд на стерео-образ. Стереограммы

MediaInfo:

General
Complete name : E:\TORRENTS.RU\RusTuts.com - Анализаторы\video\01\001\001.mp4
Format : MPEG-4
Format profile : Base Media / Version 2
Codec ID : mp42
File size : 48.5 MiB
Duration : 4mn 44s
Overall bit rate mode : Variable
Overall bit rate : 1 432 Kbps
Encoded date : UTC 2013-04-12 07:02:33
Tagged date : UTC 2013-04-12 07:02:33
Video
ID : 1
Format : AVC
Format/Info : Advanced Video Codec
Format profile : [url=mailto:High@L3.1]High@L3.1[/url]
Format settings, CABAC : Yes
Format settings, ReFrames : 3 frames
Codec ID : avc1
Codec ID/Info : Advanced Video Coding
Duration : 4mn 44s
Bit rate mode : Variable
Bit rate : 1 103 Kbps
Width : 1 280 pixels
Height : 720 pixels
Display aspect ratio : 16:9
Frame rate mode : Constant
Frame rate : 25.000 fps
Standard : PAL
Color space : YUV
Chroma subsampling : 4:2:0
Bit depth : 8 bits
Scan type : Progressive
Bits/(Pixel*Frame) : 0.048
Stream size : 37.4 MiB (77%)
Language : English
Encoded date : UTC 2013-04-12 07:02:33
Tagged date : UTC 2013-04-12 07:02:33
Color primaries : BT.709
Transfer characteristics : BT.709
Matrix coefficients : BT.709
Audio
ID : 2
Format : AAC
Format/Info : Advanced Audio Codec
Format profile : LC
Codec ID : 40
Duration : 4mn 44s
Source duration : 4mn 44s
Bit rate mode : Variable
Bit rate : 326 Kbps
Maximum bit rate : 526 Kbps
Channel(s) : 2 channels
Channel positions : Front: L R
Sampling rate : 44.1 KHz
Compression mode : Lossy
Stream size : 11.0 MiB (23%)
Source stream size : 11.0 MiB (23%)
Language : English
Encoded date : UTC 2013-04-12 07:02:33
Tagged date : UTC 2013-04-12 07:02:33
mdhd_Duration : 284003
Скриншоты:
Скачать .torrent

Для того, чтобы скачать торрент-файл

RusTuts.com - Анализаторы (2013)

с нашего сайта, Вам необходимо Войти на сайт под своим логином! Если у Вас ещё нет логина, тогда Вам нужно сначала Зарегистрироваться!

Как скачивать? · Что такое торрент? · Рейтинг и ограничения

Показать сообщения:    
Ответить на тему

RusTuts.com - Анализаторы (2013) скачать торрент (torrent), видеоуроки, тренинги, обучающее видео и видеокурсы

Текущее время: Сегодня 10:55

Часовой пояс: GMT + 4



Вы не можете начинать темы
Вы не можете отвечать на сообщения
Вы не можете редактировать свои сообщения
Вы не можете удалять свои сообщения
Вы не можете голосовать в опросах
Вы не можете прикреплять файлы к сообщениям
Вы не можете скачивать файлы