Дмитрий Валак - Сайтотворец – Верстальщик (2013)

Ответить на тему
 
Автор Сообщение

Yulya ®

-Дмитрий Валак - Сайтотворец – Верстальщик (2013)- Автор (режиссер): Дмитрий Валак
Название: Сайтотворец – Верстальщик
Год выпуска: 2013
Жанр: Веб-дизайн, Веб-разработка
Продолжительность: 12:33:02
Качество видео: PCRec
Видеокодек: MPEG-4 AVC/H.264
Битрейт видео: ~230kb/s, 30 FPS
Размер кадра: 800x600, 1024x726, 1280x720
Аудиокодек: AAC
Битрейт аудио: 53,5 Кбит/сек, 44,1 КГц, 2 канала
Описание:
Более 100 видеоуроков на темы: HTML, HTML5, CSS, CSS3, блочная верстка интернет-магазина и сайта-визитки и основы работы с Adobe Photoshop CS6.
В этом курсе Вы выучите все необходимое для того, чтобы начать создавать красивые, статические сайты на HTML, HTML5, CSS и CSS3.
Хватит собирать в интернете некачественную информацию по крупицам. Берите сразу все самое лучшее: видео-уроки, домашние задания, материалы для самостоятельной работы и дополнительные материалы для успешного обучения.

MediaInfo

Общее
Полное имя : D:\Сайтотворец – Верстальщик\1.HTML\Урок 1 - Структура HTML документа.mp4
Формат : MPEG-4
Профиль формата : Base Media / Version 2
Идентификатор кодека : mp42
Размер файла : 27,0 Мбайт
Продолжительность : 13 м.
Общий поток : 274 Кбит/сек
Дата кодирования : UTC 2013-06-30 11:15:57
Дата пометки : UTC 2013-06-30 11:15:57
Видео
Идентификатор : 1
Формат : AVC
Формат/Информация : Advanced Video Codec
Профиль формата : [url=mailto:High@L4.0]High@L4.0[/url]
Параметр CABAC формата : Да
Параметр ReFrames формата : 4 кадра
Идентификатор кодека : avc1
Идентификатор кодека/Информация : Advanced Video Coding
Продолжительность : 13 м.
Продолжительность оригинала : 13 м.
Вид битрейта : Переменный
Битрейт : 200 Кбит/сек
Ширина : 1280 пикселей
Высота : 720 пикселей
Соотношение сторон : 16:9
Режим частоты кадров : Постоянный
Частота кадров : 30,000 кадров/сек
Стандарт вещания : NTSC
Цветовое пространство : YUV
Субдискретизация насыщенности : 4:2:0
Битовая глубина : 8 бит
Тип развёртки : Прогрессивная
Бит/(Пиксели*Кадры) : 0.007
Размер потока : 19,8 Мбайт (73%)
Размер потока оригинала : 21,4 Мбайт (79%)
Язык : English
Дата кодирования : UTC 2013-06-30 11:15:57
Дата пометки : UTC 2013-06-30 11:15:57
mdhd_Duration : 827219
Основные цвета : BT.709
Характеристики трансфера : BT.709
Коэффициенты матрицы : BT.709
Аудио
Идентификатор : 2
Формат : AAC
Формат/Информация : Advanced Audio Codec
Профиль формата : LC
Идентификатор кодека : 40
Продолжительность : 13 м.
Продолжительность оригинала : 13 м.
Вид битрейта : Постоянный
Битрейт : 53,5 Кбит/сек
Каналы : 2 канала
Расположение каналов : Front: L R
Частота : 44,1 КГц
Метод сжатия : С потерями
Размер потока : 5,27 Мбайт (20%)
Размер потока оригинала : 5,27 Мбайт (20%)
Язык : English
Дата кодирования : UTC 2013-06-30 11:15:57
Дата пометки : UTC 2013-06-30 11:15:57
mdhd_Duration : 827067
Скриншоты:
Скачать .torrent

Для того, чтобы скачать торрент-файл

Дмитрий Валак - Сайтотворец – Верстальщик (2013)

с нашего сайта, Вам необходимо Войти на сайт под своим логином! Если у Вас ещё нет логина, тогда Вам нужно сначала Зарегистрироваться!

Как скачивать? · Что такое торрент? · Рейтинг и ограничения

qorbobo17

Спасибо
Показать сообщения:    
Ответить на тему

Дмитрий Валак - Сайтотворец – Верстальщик (2013) скачать торрент (torrent), видеоуроки, тренинги, обучающее видео и видеокурсы

Текущее время: Сегодня 23:44

Часовой пояс: GMT + 4



Вы не можете начинать темы
Вы не можете отвечать на сообщения
Вы не можете редактировать свои сообщения
Вы не можете удалять свои сообщения
Вы не можете голосовать в опросах
Вы не можете прикреплять файлы к сообщениям
Вы не можете скачивать файлы