Ильдар Усманов - Создание, защита и редактирование сайта на CMS Joomla (2013)

Ответить на тему
 
Автор Сообщение

Yulya ®

-Ильдар Усманов - Создание, защита и редактирование сайта на CMS Joomla (2013)- Автор (режиссер): Ильдар Усманов
Название: Создание, защита и редактирование сайта на CMS Joomla
Год выпуска: 2013
Жанр: Обучающий видекурс
Продолжительность: 07:15:24
Качество видео: PCRec
Видеокодек: AVC
Битрейт видео: ~15fps 2213kbps
Размер кадра: 1280x720
Аудиокодек: AAC
Битрейт аудио: 44100Hz stereo 79kbps
Доп. материалы: Имеются
Описание:
Из данного видеокурса Вы получите все необходимые знания по популярному движку создания сайтов. Больше практики! Все мы знаем, что теория не усваивается без практики, и именно поэтому курс устроен так, чтобы теоретическая информация закреплялась необходимой практикой. Уроки не будут затянуты, ведь в них будет содержаться лишь необходимая человеку информация и освещается множество нюансов работы с CMS Joomla!
Вся информация в видекурсе излагается предельно подробно, пошагово и на конкретных примерах, так что она будет понятна даже человеку, который ничего не знает о создании сайтов, т.к. главный акцент сделан на доступность изложения.

Дополнительная информация:

Содержание видеокурса:
• Часть 1. Joomla 3.1. Создай свой сайт за 1,5 часа
Длительность приблизительно 1,5 часа. Состоит из 16 уроков, которые помогут разобраться Вам в последней версии CMS Joomla (На данный момент 3.1).
Содержание:
01. Установка Denwer
02. Установка Joomla
03. Админ панель и руссификация
04. Шаблоны в Joomla
05. Первая статья
06. Расширяем функционал Joomla
07. Добавление материала на сайт- категории и статьи
08. Что такое позиции и модули в шаблоне
09. Вывод материала - создание и настройка меню
10. Типы пункта меню
11. Настройки вывода материала - ч.1
12. Настройки вывода материала - ч.2
13. Компоненты и плагины - Что это такое
14. Встраивание слайдеров внутри статей с помощью плагина - Sliders
15. Быстрая очистка кэша с помощью расширения - Cache cleaner
16. SEO - индексация изображений в Joomla
• Часть 2. Домен и хостинг
5 пошаговых видеоуроков по переносу сайта Joomla на хостинг для тех, кто хочет перенести свой сайт уже на всеобщее обозрение.
Содержание:
1. Регистрация домена
2. Регистрация хостинга
3. Закачиваем файлы
4. Настраиваем базу данных
5. Настраиваем файл конфигурации
• Часть 3. Компактные формы регистрации на вашем сайте:
Эта часть посвящена авторизации на Вашем сайте. Не всегда мы можем удобно выбрать подходящую позицию для авторизации на нашем сайте. В видеоуроках будут рассмотрены несколько расширений, которые позволят нам решить эту проблему.
Содержание:
1. Модуль авторизации - RizVN Login
2. Форма входа - Hot login
3. Модуль авторизации Joomla - Login register
• Часть 4. Удобная админ панель
Кто-то из нас знал, а кто то нет, но панель администратора в Joomla так же поддается настройке и расширению возможностей. Цель этой части - сэкономить Ваше время при работе в админ панели joomla. Каждая мелочь поможет нам выиграть время. Так что выбирайте те расширения которые подходят именно Вам и используйте их на свое усмотрение.
Содержание:
1. Настройка админ панели с помощью плагина - AJAX toggler
2. Настройка админ панели с помощью плагина - Adminbar docker
3. Настройка админ панели с помощью расширения - Advanced module manager
4. Настройка админ панели с помощью расширения - Asikart Quickicons
5. Настройка админ панели с помощью расширения - JCN PowerAdmin
• Часть 5. Как защитить свой сайт:
Безопасность сайта превыше всего, ведь если не следить за ней, то сложно даже представить чем это обернется. Естественно я не буду ничего говорить про скачивание различных расширений с неофициальных источников, это и так понятно. Все рассмотренные расширения являются бесплатными, так что, смело качайте их с официального сайта расширений Joomla.
Содержание:
01. Управление сайтом и защита - Admin Tools
02. Защита сайта от перебора паролей
03. Защита админ панели (расширение - kSecure)
04. Защита админ панели (расширение - AdminExile)
05. Защита админ панели (расширение - JLSecure My Site)
06. Защита админ панели (расширение - jSecure Lite)
07. Создание резервной копии сайта (расширение - XCloner)
08. Восстановление резервной копии сайта (расширение - XCloner)
09. Автобекап сайта через Cron (расширение - XCloner)
19. Резервной копирование с помощью - Akeeba Backup
11. Восстановление из резервной копии с помощью - Akeeba Backup KickStart
12. Защита контента с помощью плагина - AntiCopy
13. Защита контента с помощью плагина- N3t Copylink
14. Каптча от Google - Recaptcha
15. Каптча - PlayThru Captcha
16. Каптча - KeyCAPTCHA
17. Каптча - N3t Seznam Captcha
18. Восстановление пароля Joomla - Способ 1
19. Восстановление пароля Joomla - Способ 2
• Часть 6. Редакторы Joomla
Речь пойдет о популярных Joomla редакторах, которые имеет широкий круг возможностей, гораздо превышающих возможности базового редактора TinyMCE. Благодаря редакторам Joomla! Вы сможете быстро и удобно оформлять ваши статьи и сэкономить время на простых операциях, например, обрамление html тегами.
Содержание:
1. Популярный Joomla редактор - JCE Editor
2. Удобный Joomla редактор - JCK editor
3. Простенький Joomla редактор - Artof editor
4. Редактор Joomla с горячими клавишами - RokPad editor
5. Кнопка редактирования с вызовом произвольного текста - Custom text button
• Дополнительный видеоурок - Руссификация расширений Joomla

MI

Общее
Полное имя : D:\Андрей\joomla
Формат : MPEG-4
Профиль формата : Base Media / Version 2
Идентификатор кодека : mp42
Размер файла : 241 Мбайт
Режим общего битрейта : Переменный
Общий поток : 2297 Кбит/сек
Видео
Идентификатор : 1
Формат : AVC
Формат/Информация : Advanced Video Codec
Профиль формата : [url=mailto:High@L3.1]High@L3.1[/url]
Параметр CABAC формата : Да
Параметр ReFrames формата : 4 кадра
Параметр GOP формата : M=1, N=15
Идентификатор кодека : avc1
Идентификатор кодека/Информация : Advanced Video Coding
Битрейт : 2213 Кбит/сек
Ширина : 1280 пикселей
Высота : 720 пикселей
Соотношение сторон : 16:9
Режим частоты кадров : Переменный
Частота кадров : 15,000 кадров/сек
Минимальная частота кадров : 15,000 кадров/сек
Максимальная частота кадров : 15,003 кадров/сек
Цветовое пространство : YUV
Субдискретизация насыщенности : 4:2:0
Битовая глубина : 8 бит
Тип развёртки : Прогрессивная
Бит/(Пиксели*Кадры) : 0.160
Размер потока : 232 Мбайт (96%)
Язык : English
Основные цвета : BT.709
Характеристики трансфера : BT.709
Коэффициенты матрицы : BT.709
Аудио
Идентификатор : 2
Формат : AAC
Формат/Информация : Advanced Audio Codec
Профиль формата : LC
Идентификатор кодека : 40
Вид битрейта : Переменный
Битрейт : 79,9 Кбит/сек
Каналы : 2 канала
Расположение каналов : Front: L R
Частота : 44,1 КГц
Метод сжатия : С потерями
Размер потока : 8,36 Мбайт (3%)
Размер потока оригинала : 8,36 Мбайт (3%)
Язык : English
mdhd_Duration : 878260
Скачать .torrent

Для того, чтобы скачать торрент-файл

Ильдар Усманов - Создание, защита и редактирование сайта на CMS Joomla (2013)

с нашего сайта, Вам необходимо Войти на сайт под своим логином! Если у Вас ещё нет логина, тогда Вам нужно сначала Зарегистрироваться!

Как скачивать? · Что такое торрент? · Рейтинг и ограничения

Показать сообщения:    
Ответить на тему

Ильдар Усманов - Создание, защита и редактирование сайта на CMS Joomla (2013) скачать торрент (torrent), видеоуроки, тренинги, обучающее видео и видеокурсы

Текущее время: Сегодня 19:41

Часовой пояс: GMT + 4



Вы не можете начинать темы
Вы не можете отвечать на сообщения
Вы не можете редактировать свои сообщения
Вы не можете удалять свои сообщения
Вы не можете голосовать в опросах
Вы не можете прикреплять файлы к сообщениям
Вы не можете скачивать файлы