Сергей Панфёров - Adobe Premiere Pro CS5.5 и CS6. Секреты Профессионалов (2013)

Ответить на тему
 
Автор Сообщение

Yulya ®

-Сергей Панфёров - Adobe Premiere Pro CS5.5 и CS6. Секреты Профессионалов (2013)- Автор (режиссер): Сергей Панфёров
Официальный сайт: Ссылка
Название: Adobe Premiere Pro CS5.5 и CS6. Секреты Профессионалов
Год выпуска: 2013
Жанр: Обучающий видеокурс
Качество видео: PCRec
Видеокодек: mp42
Битрейт видео: ~275 Кбит/сек
Размер кадра: 1100х800
Аудиокодек: AAC
Битрейт аудио: 93,4 Кбит/сек
Описание:
Adobe Premiere Pro CS5.5 и CS6. Секреты Профессионалов - Наглядный и практический видео-курс от профессионального видеографа Сергея Панферова по самой мультимедийной программе видеомонтажа Adobe Premiere Pro CS5.5 и CS6.

Усвоив материал из этого видео-курса, Вы сможете:

1. Настраивать собственные рабочие области программы под свои проекты и запоминать их в виде шаблонов под удобство Вашего использования.
2. Редактировать исходные файлы в предварительном окне SOURCE с последующим использованием их в конечном проекте.
3. Использовать полный функционал программы Adobe Premiere Pro CS5.5 и CS6 для работы в окне Timeline для работы с клипами, а также анимировать их по собственному усмотрению.
4. Работать с эффектами, фильтрами и переходами для клипов на видео и аудио дорожках, делать для них самостоятельные решения и использовать их автоматически для нужного количества видео-фрагментов.
5. Использовать автоматизацию за счет новых последовательностей клипов, а также изготовления самостоятельных пресетов, т.е. шаблонов для удобства монтажа в программе Adobe Premiere Pro CS5.5 и CS6...
6. Вы получите самые полные рекомендации при работе с титрами в этой программе.
7. Вы сможете редактировать звук и настраивать его в разном функционале.
8. И самое главное!!! В процессе обучения по этому курсу, я предоставляю все материалы и на них наглядно показываю все действия... А самое главное, на протяжении курса я рассказываю все рекомендации, о которых так тщательно умалчивают профессионалы...
9. Ну и в самом заключении курса мы с Вами сможем вывести из готового проекта в любой файл, будь то для DVD, Blu-Ray или для самого избранного пользования...
В курсе также показаны все самые важные горячие клавишы, а также как их настраивать самостоятельно и применять в программе... А также, как программировать горячие клавиши для Ваших нужд.
Таким образом, Вы не только узнаете, как профессионально пользоваться программой Adobe Premiere Pro, но и сможете ее приручить по считанным нажатиям Ваших пальцев по клавиатуре...
Использовав и усвоив такой ценный материал, Вы сможете создавать красивые фильмы и ролики не только для своей семьи, но и на заказ, получая за это десятки или сотни тысяч рублей. Кроме того, Вы можете с помощью рекомендаций в курсе экономить большое количество времени.

Медиаинфо:

Общее
Полное имя : 2_urok_nest.mp4
Формат : MPEG-4
Профиль формата : Base Media / Version 2
Идентификатор кодека : mp42
Размер файла : 28,1 Мбайт
Продолжительность : 10 м.
Общий поток : 371 Кбит/сек
Дата кодирования : UTC 2011-09-10 10:04:45
Дата пометки : UTC 2011-09-10 10:04:45
Видео
Идентификатор : 1
Формат : AVC
Формат/Информация : Advanced Video Codec
Профиль формата : [url=mailto:High@L4.0]High@L4.0[/url]
Параметр CABAC формата : Да
Параметр ReFrames формата : 4 кадра
Идентификатор кодека : avc1
Идентификатор кодека/Информация : Advanced Video Coding
Продолжительность : 10 м.
Продолжительность оригинала : 10 м.
Вид битрейта : Переменный
Битрейт : 275 Кбит/сек
Ширина : 1100 пикселей
Высота : 800 пикселей
Соотношение сторон : 1,375
Режим частоты кадров : Постоянный
Частота кадров : 15,000 кадров/сек
Цветовое пространство : YUV
Субдискретизация насыщенности : 4:2:0
Битовая глубина : 8 бит
Тип развёртки : Прогрессивная
Бит/(Пиксели*Кадры) : 0.021
Размер потока : 20,9 Мбайт (74%)
Размер потока оригинала : 20,9 Мбайт (74%)
Язык : English
Дата кодирования : UTC 2011-09-10 10:04:45
Дата пометки : UTC 2011-09-10 10:04:45
mdhd_Duration : 635754
Основные цвета : BT.709
Характеристики трансфера : BT.709
Коэффициенты матрицы : BT.709
Аудио
Идентификатор : 2
Формат : AAC
Формат/Информация : Advanced Audio Codec
Профиль формата : LC
Идентификатор кодека : 40
Продолжительность : 10 м.
Продолжительность оригинала : 10 м.
Вид битрейта : Постоянный
Битрейт : 93,4 Кбит/сек
Каналы : 2 канала
Расположение каналов : Front: L R
Частота : 48,0 КГц
Метод сжатия : С потерями
Размер потока : 7,08 Мбайт (25%)
Размер потока оригинала : 7,08 Мбайт (25%)
Язык : English
Дата кодирования : UTC 2011-09-10 10:04:45
Дата пометки : UTC 2011-09-10 10:04:45
mdhd_Duration : 635888

Бонусы:


Бонус 1 Дополнительные возможности программы Adobe Premiere Pro CS5.5 - Вы увидите, как пользоваться наиболее широким функционалом программы Adobe Premiere Pro CS5.5 и претворять его в жизнь видеомонтажа...

Бонус 2 Экспорт с помощью Adobe Media Encoder CS5.5 и CS6 - О том, как использовать встроенную в пакет Production Premium программу Adobe Media Encoder для всестороннего использования, по перекодировочным функциям которой в мире просто нет равных...

Бонус 3 Цветокоррекция в Adobe Premiere Pro - Отдельный часовой видео-курс по Цветокоррекции штатными средствами программы... Такого Вы точно ни от кого не узнаете...
Скриншоты с учебных фильмов:

Скриншоты с программной оболочки:

Скачать .torrent

Для того, чтобы скачать торрент-файл

Сергей Панфёров - Adobe Premiere Pro CS5.5 и CS6. Секреты Профессионалов (2013)

с нашего сайта, Вам необходимо Войти на сайт под своим логином! Если у Вас ещё нет логина, тогда Вам нужно сначала Зарегистрироваться!

Как скачивать? · Что такое торрент? · Рейтинг и ограничения

Показать сообщения:    
Ответить на тему

Сергей Панфёров - Adobe Premiere Pro CS5.5 и CS6. Секреты Профессионалов (2013) скачать торрент (torrent), видеоуроки, тренинги, обучающее видео и видеокурсы

Текущее время: Сегодня 00:17

Часовой пояс: GMT + 4



Вы не можете начинать темы
Вы не можете отвечать на сообщения
Вы не можете редактировать свои сообщения
Вы не можете удалять свои сообщения
Вы не можете голосовать в опросах
Вы не можете прикреплять файлы к сообщениям
Вы не можете скачивать файлы