Сергей Гаврилов, Александр Тиханский - PHOTONAUKA: Уроки по фотографии (2011)

Ответить на тему
 
Автор Сообщение

Yulya ®

-Сергей Гаврилов, Александр Тиханский - PHOTONAUKA: Уроки по фотографии (2011)- Автор (режиссер): Сергей Гаврилов, Александр Тиханский
Название: PHOTONAUKA: Уроки по фотографии
Год выпуска: 2011
Жанр: Обучающее видео, фотография
Продолжительность: 00:52:23
Качество видео: CamRip
Видеокодек: AVC
Битрейт видео: ~30fps 1817kbps
Размер кадра: 590 x 333
Аудиокодек: AAC
Битрейт аудио: 44100Hz stereo 126kbps
Описание:
Видеокурс для фотографов, в котором Авторы делятся с Вами своим профессиональным опытом, посмотрев этот видеокурс Вы узнаете и научитесь: как создавать равномерное освещение, как и по каким критериям выбирать фотофильтры, а так же увидете как просто и эффективно можно применять вcпышку, и многое другое.

Содержание:

Урок 1. Портрет
— Портретная схема света
— Замеры освещённости
— Создание равномерного освещения
— Прибор рисующего света
— Определение экспозиции
Урок 2. Объективы и их фокусные расстояния
— Использование телеобъектива и требования к нему
— Использование зум-объективов
— Тонкости экспозиции для разных объективов
— Широкоугольный объектив
Урок 3. Режимное освещение
— Портретная фотография в условиях вечернего и ночного освещения
— Выдержки для портретов в этих условиях
— Практические навыки съёмки портретов в движении
Урок 4. Вид освещения — "Beauty light"
— Для чего необходимо освещение Beauty light
— Схема и средства освещения Beauty light
Урок 5. Полезные фильтры при съёмке пейзажей
— Для чего используется светофильтры
— Поляризационный фильтр и методы его использования
— Другие светофильтры
— Работа поляризационного светофильтра в натюрморте
Урок 6. работа со вcпышкой
Часть 1 — Портативные вспышки:
— Виды портативных вспышек
— Преимущества вспышек
— Портретная схема при работе со вспышками
— Экспокоррекция
Часть 2 — Съёмка со вcпышкой:
— Приёмы использования вcпышки
Урок 7. Техника съёмки — "Time laps"
— Оборудование для съёмки
— Задача интервала съёмки для кадров
— Экспозиция
— Практическая съёмка
— Техотдел. Программное обеспечение для съёмки
— Как склеить кино

Урок 8. Практическая съёмка портрето — "Fashion Portrait
"
— Практическая съёмка портретов
— Схемы света подробно

MI

Общее
Полное имя : D:\Андрей\photonauk
Формат : MPEG-4
Профиль формата : Base Media
Идентификатор кодека : isom
Размер файла : 84,0 Мбайт
Режим общего битрейта : Переменный
Общий поток : 1949 Кбит/сек
Программа кодирования : Lavf52.93.0
Видео
Идентификатор : 1
Формат : AVC
Формат/Информация : Advanced Video Codec
Профиль формата : [url=mailto:Baseline@L3.1]Baseline@L3.1[/url]
Параметр CABAC формата : Нет
Параметр ReFrames формата : 1 кадр
Идентификатор кодека : avc1
Идентификатор кодека/Информация : Advanced Video Coding
Битрейт : 1817 Кбит/сек
Ширина : 848 пикселей
Высота : 480 пикселей
Соотношение сторон : 16:9
Режим частоты кадров : Постоянный
Частота кадров : 30,000 кадров/сек
Цветовое пространство : YUV
Субдискретизация насыщенности : 4:2:0
Битовая глубина : 8 бит
Тип развёртки : Прогрессивная
Бит/(Пиксели*Кадры) : 0.151
Размер потока : 78,3 Мбайт (93%)
Библиотека кодирования : x264 core 112
Настройки программы : cabac=0 / ref=1 / deblock=1:0:0 / analyse=0x1:0x111 / me=hex / subme=7 / psy=1 / psy_rd=1.00:0.00 / mixed_ref=0 / me_range=16 / chroma_me=1 / trellis=1 / 8x8dct=0 / cqm=0 / deadzone=21,11 / fast_pskip=1 / chroma_qp_offset=-2 / threads=1 / sliced_threads=0 / nr=0 / decimate=1 / interlaced=0 / constrained_intra=0 / bframes=0 / weightp=0 / keyint=250 / keyint_min=25 / scenecut=40 / intra_refresh=0 / rc_lookahead=40 / rc=abr / mbtree=1 / bitrate=1846 / ratetol=1.0 / qcomp=0.60 / qpmin=10 / qpmax=51 / qpstep=4 / ip_ratio=1.41 / aq=1:1.00
Аудио
Идентификатор : 2
Формат : AAC
Формат/Информация : Advanced Audio Codec
Профиль формата : LC
Идентификатор кодека : 40
Вид битрейта : Переменный
Битрейт : 126 Кбит/сек
Каналы : 2 канала
Расположение каналов : Front: L R
Частота : 44,1 КГц
Метод сжатия : С потерями
Размер потока : 5,46 Мбайт (6%)
Скачать .torrent

Для того, чтобы скачать торрент-файл

Сергей Гаврилов, Александр Тиханский - PHOTONAUKA: Уроки по фотографии (2011)

с нашего сайта, Вам необходимо Войти на сайт под своим логином! Если у Вас ещё нет логина, тогда Вам нужно сначала Зарегистрироваться!

Как скачивать? · Что такое торрент? · Рейтинг и ограничения

Показать сообщения:    
Ответить на тему

Сергей Гаврилов, Александр Тиханский - PHOTONAUKA: Уроки по фотографии (2011) скачать торрент (torrent), видеоуроки, тренинги, обучающее видео и видеокурсы

Текущее время: Сегодня 20:40

Часовой пояс: GMT + 4



Вы не можете начинать темы
Вы не можете отвечать на сообщения
Вы не можете редактировать свои сообщения
Вы не можете удалять свои сообщения
Вы не можете голосовать в опросах
Вы не можете прикреплять файлы к сообщениям
Вы не можете скачивать файлы