Сергей Токарев - Видеомонтаж на 100 процентов качественный ролик своими силами (2013)

Ответить на тему
 
Автор Сообщение

Yulya ®

-Сергей Токарев - Видеомонтаж на 100 процентов качественный ролик своими силами (2013)- Автор (режиссер): Сергей Токарев
Название: Видеомонтаж на 100 процентов качественный ролик своими силами
Год выпуска: 2013
Жанр: Обучающий
Продолжительность: 01:38:00
Качество видео: PCRec
Видеокодек: MPEG-4
Битрейт видео: ~1 281 Kbps
Размер кадра: 1920х1080
Аудиокодек: AAC
Битрейт аудио: 192 Кбит/с, 2 ch
Описание:
В эпоху, когда в большинство смартфонов встроена камера с высоким разрешением, а устройства для видеозаписи полупрофессионального уровня может позволить себе даже студент, создание видеороликов стало доступно каждому. Однако правильно смонтировать и преподнести отснятый материал могут далеко не все. Хотите освоить профессию видеомонтажера или просто повысить качество вашего видеоконтента? В ходе нашего видео режиссер видеомонтажа телеканала Russia Today Сергей Токарев познакомит вас с основными принципами работы с видео.
Вы узнаете:
Что такое видеомонтаж и зачем он нужен лично вам
Чем любительский монтаж отличается от профессионального
Все, что вам необходимо знать о форматах видео
Какую программу выбрать для эффективного редактирования видео
Основные принципы профессионального видеомонтажа
Сам себе режиссер: почему принципы монтажа важно знать еще до того, как вы взяли в руки камеру

MediaInfo:

General
Format : MPEG-4
Format profile : Base Media / Version 2
Codec ID : mp42
File size : 1.02 GiB
Duration : 1h 38mn
Overall bit rate : 1 475 Kbps
Encoded date : UTC 2013-08-09 02:05:06
Tagged date : UTC 2013-08-09 02:05:06
Video
ID : 1
Format : AVC
Format/Info : Advanced Video Codec
Format profile : [url=mailto:High@L4.0]High@L4.0[/url]
Format settings, CABAC : Yes
Format settings, ReFrames : 1 frame
Codec ID : avc1
Codec ID/Info : Advanced Video Coding
Duration : 1h 38mn
Bit rate mode : Variable
Bit rate : 1 281 Kbps
Maximum bit rate : 9 186 Kbps
Width : 1 920 pixels
Height : 1 080 pixels
Display aspect ratio : 16:9
Frame rate mode : Constant
Frame rate : 25.000 fps
Color space : YUV
Chroma subsampling : 4:2:0
Bit depth : 8 bits
Scan type : Progressive
Bits/(Pixel*Frame) : 0.025
Stream size : 904 MiB (87%)
Tagged date : UTC 2013-08-09 02:08:43
Audio
ID : 2
Format : AAC
Format/Info : Advanced Audio Codec
Format profile : LC
Codec ID : 40
Duration : 1h 38mn
Bit rate mode : Variable
Bit rate : 192 Kbps
Maximum bit rate : 204 Kbps
Channel(s) : 2 channels
Channel positions : Front: L R
Sampling rate : 44.1 KHz
Compression mode : Lossy
Stream size : 136 MiB (13%)
Title : IsoMedia File Produced by Google, 5-11-2011
Encoded date : UTC 2013-08-09 02:07:16
Tagged date : UTC 2013-08-09 02:08:43
Скриншоты:
Скачать .torrent

Для того, чтобы скачать торрент-файл

Сергей Токарев - Видеомонтаж на 100 процентов качественный ролик своими силами (2013)

с нашего сайта, Вам необходимо Войти на сайт под своим логином! Если у Вас ещё нет логина, тогда Вам нужно сначала Зарегистрироваться!

Как скачивать? · Что такое торрент? · Рейтинг и ограничения

Показать сообщения:    
Ответить на тему

Сергей Токарев - Видеомонтаж на 100 процентов качественный ролик своими силами (2013) скачать торрент (torrent), видеоуроки, тренинги, обучающее видео и видеокурсы

Текущее время: Сегодня 10:53

Часовой пояс: GMT + 4



Вы не можете начинать темы
Вы не можете отвечать на сообщения
Вы не можете редактировать свои сообщения
Вы не можете удалять свои сообщения
Вы не можете голосовать в опросах
Вы не можете прикреплять файлы к сообщениям
Вы не можете скачивать файлы