Георгий Полицарнов - Ваш зеркальный Canon. Основы работы с камерой (2010)

Ответить на тему
 
Автор Сообщение

Yulya ®

-Георгий Полицарнов - Ваш зеркальный Canon. Основы работы с камерой (2010)- Автор (режиссер): Георгий Полицарнов
Название: Ваш зеркальный Canon. Основы работы с камерой
Год выпуска: 2010
Жанр: Обучающий видеокурс
Продолжительность: 01:29:47
Качество видео: CamRip
Видеокодек: AVC
Битрейт видео: ~25fps 698kbps
Размер кадра: 1280x720
Аудиокодек: AAC
Битрейт аудио: 44100Hz stereo 127kbps
Доп. материалы: Имеются
Описание:
Современный зеркальный фотоаппарат — сложный творческий инструмент, возможности которого настолько широки, что о некоторых из них вы можете даже не догадываться. В этом курсе мы разберемся со всеми тонкостями настроек и функций вашей камеры, чтобы вы имели полное представление о ее потенциале. И конечно, мы поговорим, для каких сюжетов и художественных приемов нужны те или иные настройки, как сделать ваши кадры наиболее выразительными, живыми и красивыми.

Дополнительная информация:

Структура курса:
1. Устройство камеры
Знакомство с основными элементами зеркалки: объектив, зеркало, видоискатель, затвор, матрица, органы управления.
2. Экспозиция: выдержка, диафрагма, чувствительность
В этом уроке поговорим о том, что такое экспозиция, как связаны между собой выдержка и диафрагма, чувствительность. Узнаем о том, как работает система экспозамера камеры и экспонометр.
3. Режимы съемки: для чего нужен каждый из них
В этом уроке — характерные особенности работы камеры в каждом режиме, плюсы и минусы каждого из режимов, возможные трудности и пути их решения. Рассмотрим примеры сюжетов, предпочтительных для того или иного режима съемки.
4. Выбор объектива. Резкость изображения. Автофокус и ручная фокусировка
Начнём разговор с обсуждения разных типов объективов. Поговорим о глубине резкости — как она зависит от диафрагмы и расстояния до объекта съемки. Поговорим о том, как работает автофокус и какие есть режимы фокусировки. Ручная фокусировка: когда, зачем и как ей стоит пользоваться.
5. Цвет и баланс белого
Обсудим источники света с разной цветовой температурой, разберёмся с понятием цветовой температуры. Узнаем, что такое автоматический баланс белого, предустановки, ручная установка баланса белого. Узнаем про настройки изображения (творческие стили).
6. Работа со вспышкой
Вспышка — особый творческий инструмент. У неё есть масса настроек и режимов работы, о которых мы и поговорим: заполняющая вспышка, синхронизация по задней шторке, медленная синхронизация. Обсудим в целом специфику съемки со вспышкой. Для какой съемки пригодится встроенная вспышка и для чего понадобится покупать внешнюю.
7. Установки качества и размер файлов. Съемка в формате RAW
Зачем нужен формат RAW: преимущества и недостатки формата. Как конвертировать RAW: установка баланса белого, правка экспозиции, спасение пересвеченных и недосвеченных участков.
8. Пользовательские настройки камеры
Пользовательские настройки камеры — зачем нужна каждая из них, что она меняет. В камерах Canon есть отдельный пункт пользовательских настроек, где можно очень тонко настроить работу камеры для своих задач: от установок шумоподавления до функций некоторых кнопок. Можно годами пользоваться камерой, и не знать, сколько полезного спрятано в этом меню.
9. Инструментарий фотографа
Покупка камеры неминуемо требует покупки массы дополнительных аксессуаров. Среди них салфетки и карандаши для чистки оптики, бленды, светофильтры, карта памяти, штатив, вспышка, фотосумка, подводный бокс и т.п. В этом уроке вы узнаете, что из этого действительно нужно, а на чем можно сэкономить.
10. Режим Live View, видеосъёмка
Рассмотрим особенности работы фотоаппарата в режиме Live View, возможные трудности с работой в этом режиме, рекомендации по съемке. Многие зеркалки умеют снимать видео. Работа с видео требует особых навыков, в этом уроке мы заострим внимание и на этом. Обсудим настройки при съемке видео, возможные проблемы и пути их решения. На что способна фотокамера в режиме видеосъемки и для чего ее можно применять.

Mediainfo:

General
Complete name : D:\Андрей\Camera_Canon
Format : MPEG-4
Format profile : Base Media
Codec ID : isom
Overall bit rate mode : Variable
Overall bit rate : 832 Kbps
Encoded date : UTC 2011-03-31 15:10:05
Tagged date : UTC 2011-03-31 15:10:05
Writing application : Lavf52.102.0
Video
ID : 1
Format : AVC
Format/Info : Advanced Video Codec
Format profile : [url=mailto:Main@L4.1]Main@L4.1[/url]
Format settings, CABAC : Yes
Format settings, ReFrames : 2 frames
Codec ID : avc1
Codec ID/Info : Advanced Video Coding
Bit rate : 699 Kbps
Width : 1 280 pixels
Height : 720 pixels
Display aspect ratio : 16:9
Frame rate mode : Constant
Frame rate : 25.000 fps
Color space : YUV
Chroma subsampling : 4:2:0
Bit depth : 8 bits
Scan type : Progressive
Bits/(Pixel*Frame) : 0.030
Stream size : 46.0 MiB (84%)
Writing library : x264 core 114 r1900
Encoding settings : cabac=1 / ref=1 / deblock=1:0:0 / analyse=0x1:0x131 / me=hex / subme=7 / psy=1 / psy_rd=1.00:0.00 / mixed_ref=0 / me_range=16 / chroma_me=1 / trellis=1 / 8x8dct=0 / cqm=0 / deadzone=21,11 / fast_pskip=1 / chroma_qp_offset=-2 / threads=3 / sliced_threads=0 / nr=0 / decimate=1 / interlaced=0 / constrained_intra=0 / bframes=3 / b_pyramid=0 / b_adapt=1 / b_bias=0 / direct=3 / weightb=1 / open_gop=0 / weightp=2 / keyint=250 / keyint_min=25 / scenecut=40 / intra_refresh=0 / rc=cqp / mbtree=0 / qp=28 / ip_ratio=1.40 / pb_ratio=1.30 / aq=0
Language : English
Encoded date : UTC 2011-03-31 15:10:05
Tagged date : UTC 2011-03-31 15:10:05
Audio
ID : 2
Format : AAC
Format/Info : Advanced Audio Codec
Format profile : LC
Codec ID : 40
Duration : 9mn 12s
Bit rate : 128 Kbps
Channel(s) : 2 channels
Channel positions : Front: L R
Sampling rate : 44.1 KHz
Compression mode : Lossy
Delay relative to video : 40ms
Stream size : 8.43 MiB (15%)
Language : English
Encoded date : UTC 2011-03-31 15:10:05
Tagged date : UTC 2011-03-31 15:10:05
Скачать .torrent

Для того, чтобы скачать торрент-файл

Георгий Полицарнов - Ваш зеркальный Canon. Основы работы с камерой (2010)

с нашего сайта, Вам необходимо Войти на сайт под своим логином! Если у Вас ещё нет логина, тогда Вам нужно сначала Зарегистрироваться!

Как скачивать? · Что такое торрент? · Рейтинг и ограничения

toha210797

Почему нет 8-го урока?)))
Показать сообщения:    
Ответить на тему

Георгий Полицарнов - Ваш зеркальный Canon. Основы работы с камерой (2010) скачать торрент (torrent), видеоуроки, тренинги, обучающее видео и видеокурсы

Текущее время: Сегодня 05:58

Часовой пояс: GMT + 4



Вы не можете начинать темы
Вы не можете отвечать на сообщения
Вы не можете редактировать свои сообщения
Вы не можете удалять свои сообщения
Вы не можете голосовать в опросах
Вы не можете прикреплять файлы к сообщениям
Вы не можете скачивать файлы