Михаил Русаков - Javascript, jQuery и Ajax с Нуля до Гуру (2013)

Ответить на тему
 
Автор Сообщение

Yulya ®

-Михаил Русаков - Javascript, jQuery и Ajax с Нуля до Гуру (2013)- Автор (режиссер): Михаил Русаков
Название: javascript, jQuery и Ajax с Нуля до Гуру
Год выпуска: 2013
Жанр: Обучающее видео
Продолжительность: 11:39:00
Качество видео: PCRec
Видеокодек: AVC
Битрейт видео: ~585 Кбит/сек
Размер кадра: 1280x720
Аудиокодек: AAC 2,0
Битрейт аудио: 126 Кбит/сек
Описание:
Данный курс – это уникальная практическая информация, которая необходима Вам в изучении javascript, jQuery и Ajax.Здесь автор опираясь на свою практику, подготовил Вам наиболее полезные упражнения для закрепления материала из уроков.

Содержание:

Ajax:
Что такое Ajax?
Работа с сервером
Отправка GET и POST запросов
Формат JSON
Полный контроль
Заключение-javascript:
Введение
Основы javascript
Hello World
Переменные
Типы переменных
Операции
Условные операторы
Операторы цикла
Методы (), confirm() и prompt()
Массивы
Многомерные массивы
Функции
Глобальные и локальные переменные
События и их обработчики
Регулярные выражения
Таймеры
Общая концепция ООП
Функции. Математические операции
Функции. Дата и время
Функции. Массивы
Функции. Строковые операции
DOM (Document Object Model)-jQuery:
Введение в jQuery
Справочник
Установка jQuery
Функция $()
Отбор элементов по ID
Отбор элементов по CLASS
Отбор элементов по тегам
Отбор элементов по иерархии
Отбор элементов по взаимоотношениям
Дополнительные селекторы в jQuery
Манипулирования с набором элементов
Манипулирование атрибутами
Манипулирование CLASS
Манипулирование стилями
Функции html() и text()
Функция clone()
Добавление элементов
Удаление элементов
Создание новых элементов
Функция val()
Установка обработчика события
Пример использования событий
Анимация
Плавное отображение элемента
Пользовательская анимация

Бонусы:

Реализация ProgressBar
Создание слайдера изображений

Дополнительная информация:

Просмотрев этот курс:
Вы научитесь писать любые скрипты на языке javascript. Вы сможете использовать библиотеку jQuery, которая резко упростит работу Вам. Вы сможете сделать очень удобные страницы для пользователей, а заодно снизить нагрузку на сервер, благодаря технологии Ajax.
Особенности курса:
Нет ничего лишнего. Всё, что я использовал в своей многолетней практике, в этом курсе содержится. Почти к каждому уроку есть упражнения. Важнейшая часть, без которой я не считаю возможным качественное обучение. К урокам имеются все исходники, написанные в процессе урока. Давно меня просили об этом, и в этом курсе как раз это сделано.
Михаил Русаков.

От автора:

Данный материал был предоставлен строго в ознакомительных целях. Просьба всех скачавших, после ознакомления, удалить этот видеокурс со своего компьютера, либо же, оплатить автору полную его стоимость.
Успехов, Вам!
С Уважением, Михаил Русаков!

MI:

Видео
Идентификатор : 1
Формат : AVC
Формат/Информация : Advanced Video Codec
Профиль формата : [url=mailto:High@L3.1]High@L3.1[/url]
Параметр CABAC формата : Да
Параметр ReFrames формата : 4 кадра
Параметр GOP формата : M=1, N=75
Идентификатор кодека : avc1
Идентификатор кодека/Информация : Advanced Video Coding
Вид битрейта : Переменный
Битрейт : 585 Кбит/сек
Ширина : 1280 пикселей
Высота : 720 пикселей
Соотношение сторон : 16:9
Режим частоты кадров : Постоянный
Частота кадров : 15,000 кадров/сек
Цветовое пространство : YUV
Субдискретизация насыщенности : 4:2:0
Битовая глубина : 8 бит
Тип развёртки : Прогрессивная
Бит/(Пиксели*Кадры) : 0.042
Размер потока : 103 Мбайт (78%)
Размер потока оригинала : 109 Мбайт (83%)
Язык : English
Дата кодирования : UTC 2013-05-30 07:07:42
Дата пометки : UTC 2013-05-30 07:07:42
mdhd_Duration : 1476815
Основные цвета : BT.709
Характеристики трансфера : BT.709
Коэффициенты матрицы : BT.709
Аудио
Идентификатор : 2
Формат : AAC
Формат/Информация : Advanced Audio Codec
Профиль формата : LC
Идентификатор кодека : 40
Вид битрейта : Постоянный
Битрейт : 126 Кбит/сек
Каналы : 2 канала
Расположение каналов : Front: L R
Частота : 44,1 КГц
Метод сжатия : С потерями
Размер потока : 22,1 Мбайт (17%)
Размер потока оригинала : 22,1 Мбайт (17%)
Язык : English
Дата кодирования : UTC 2013-05-30 07:07:42
Дата пометки : UTC 2013-05-30 07:07:42
mdhd_Duration : 1475994
Скачать .torrent

Для того, чтобы скачать торрент-файл

Михаил Русаков - Javascript, jQuery и Ajax с Нуля до Гуру (2013)

с нашего сайта, Вам необходимо Войти на сайт под своим логином! Если у Вас ещё нет логина, тогда Вам нужно сначала Зарегистрироваться!

Как скачивать? · Что такое торрент? · Рейтинг и ограничения

Показать сообщения:    
Ответить на тему

Михаил Русаков - Javascript, jQuery и Ajax с Нуля до Гуру (2013) скачать торрент (torrent), видеоуроки, тренинги, обучающее видео и видеокурсы

Текущее время: Сегодня 22:18

Часовой пояс: GMT + 4



Вы не можете начинать темы
Вы не можете отвечать на сообщения
Вы не можете редактировать свои сообщения
Вы не можете удалять свои сообщения
Вы не можете голосовать в опросах
Вы не можете прикреплять файлы к сообщениям
Вы не можете скачивать файлы