Ксения Комендацкая - Какой фотоаппарат выбрать начинающему фотографу / Настройки зеркального фотоаппарата для "Чайников" (2013)

Ответить на тему
 
Автор Сообщение

Yulya ®

-Ксения Комендацкая - Какой фотоаппарат выбрать начинающему фотографу / Настройки зеркального фотоаппарата для "Чайников" (2013)- Автор (режиссер): Ксения Комендацкая
Название: Какой фотоаппарат выбрать начинающему фотографу / Настройки зеркального фотоаппарата для "Чайников"
Год выпуска: 2013
Жанр: Обучающий вебинар
Продолжительность: 02:53:04
Качество видео: PCRec
Видеокодек: AVC
Битрейт видео: ~15fps 450kbps
Размер кадра: 1280x720
Аудиокодек: AAC
Битрейт аудио: 44100Hz stereo 191kbps
Описание:
Если вы решили профессионально заняться фотобизнесом, или же просто любите фотографировать невольно встает вопрос, какой фотоаппарат выбрать начинающему фотографу? Современный рынок цифровой фототехники пестрит брендами, и не всегда понятно, какие критерии являются наиболее важными при выборе фотоаппарата. Данный вэбинар поможет определиться, какой фотоаппарат выбрать начинающему фотографу.
Как работает ваша зеркальная камера -- взгляд «изнутри». Обзор и выбор основных настроек зеркальной камеры: на что они влияют, как их выставлять на камерах Canon/Nikon, в каких случаях выбирать те или иные настройки.

Содержание:

• Разновидности современных фотоаппаратов
• Из чего состоит фотоаппарат
• Основополагающие критерии выбора фотоаппарата
• Дополнительные функции и возможности -- за что стоит платить
• «Тушка» или «китовый» комплект?
• Новый фотоаппарат или б/у?
• На что придётся потратиться, кроме самого фотоаппарата
Как работает ваша зеркальная камера - взгляд изнутри
Обзор и выбор основных настроек зеркальной камеры: на что они влияют, как их выставлять на камерах Canon/Nikon, в каких случаях выбирать те или иные настройки.
• Коротко о режимах съемки и как их выставить
• Выставляем ISO -- какое, как и что от этого изменится?
• Учимся выставлять выдержку и диафрагму -- как это сделать и на что они влияют?
• Что такое баланс белого и как его определить?
• Режимы экспозамера -- просто о сложном
• Режимы фокусировки, точка фокусировки, ручной или автофокус -- выбираем с умом
• Покадровая и серийная съемка -- когда переключиться? Съемка с задержкой спуска, дистанционное управление спуском
• Настройка автобрекетинга для гарантированного результата
• Экспокоррекция, стили изображения и качество снимков - тонкая подстройка автоматики под себя

MI

Видео
Идентификатор : 1
Формат : AVC
Формат/Информация : Advanced Video Codec
Профиль формата : [url=mailto:High@L3.1]High@L3.1[/url]
Параметр CABAC формата : Да
Параметр ReFrames формата : 1 кадр
Идентификатор кодека : avc1
Идентификатор кодека/Информация : Advanced Video Coding
Битрейт : 450 Кбит/сек
Максимальный битрейт : 2680 Кбит/сек
Ширина : 1280 пикселей
Высота : 720 пикселей
Соотношение сторон : 16:9
Режим частоты кадров : Постоянный
Частота кадров : 15,000 кадров/сек
Цветовое пространство : YUV
Субдискретизация насыщенности : 4:2:0
Битовая глубина : 8 бит
Тип развёртки : Прогрессивная
Бит/(Пиксели*Кадры) : 0.033
Размер потока : 251 Мбайт (70%)
Дата пометки : UTC 2013-03-30 19:02:18
Аудио
Идентификатор : 2
Формат : AAC
Формат/Информация : Advanced Audio Codec
Профиль формата : LC
Идентификатор кодека : 40
Вид битрейта : Переменный
Битрейт : 192 Кбит/сек
Максимальный битрейт : 201 Кбит/сек
Каналы : 2 канала
Расположение каналов : Front: L R
Частота : 44,1 КГц
Метод сжатия : С потерями
Размер потока : 107 Мбайт (30%)
Заголовок : IsoMedia File Produced by Google, 5-11-2011
Дата кодирования : UTC 2013-03-30 19:01:36
Дата пометки : UTC 2013-03-30 19:02:18
Скачать .torrent

Для того, чтобы скачать торрент-файл

Ксения Комендацкая - Какой фотоаппарат выбрать начинающему фотографу / Настройки зеркального фотоаппарата для "Чайников" (2013)

с нашего сайта, Вам необходимо Войти на сайт под своим логином! Если у Вас ещё нет логина, тогда Вам нужно сначала Зарегистрироваться!

Как скачивать? · Что такое торрент? · Рейтинг и ограничения

Показать сообщения:    
Ответить на тему

Ксения Комендацкая - Какой фотоаппарат выбрать начинающему фотографу / Настройки зеркального фотоаппарата для "Чайников" (2013) скачать торрент (torrent), видеоуроки, тренинги, обучающее видео и видеокурсы

Текущее время: Сегодня 19:40

Часовой пояс: GMT + 4



Вы не можете начинать темы
Вы не можете отвечать на сообщения
Вы не можете редактировать свои сообщения
Вы не можете удалять свои сообщения
Вы не можете голосовать в опросах
Вы не можете прикреплять файлы к сообщениям
Вы не можете скачивать файлы