И.О.Борисов | Специалист - PHP. Уровень 3. Профессиональная разработка на PHP5 (2013)

Ответить на тему
 
Автор Сообщение

Yulya ®

-И.О.Борисов | Специалист - PHP. Уровень 3. Профессиональная разработка на PHP5 (2013)- Автор (режиссер): И.О.Борисов
Название: Специалист. PHP. Уровень 3. Профессиональная разработка на PHP5
Год выпуска: 2013
Жанр: Обучающие видеокурсы
Качество видео: PCRec
Продолжительность: 14:11:39
Видеокодек: AVC
Битрейт видео: ~393 Кбит/сек
Размер кадра: 1024х768
Аудиокодек: AAC
Битрейт аудио: 53,4 Кбит/сек
Описание:
Данный курс является обязательным курсом в цепочке подготовки Веб-мастера к получению сертификации ZCE (Zend Certified Engineer).
Курс рекомендован слушателям, имеющим начальный опыт использования PHP, и желающим расширить свои знания и опыт.
В этом курсе рассматриваются сложные темы, такие как ООП, XML, Веб-сервисы, без которых немыслима профессиональная разработка приложений на PHP, что позволяет создавать сложные Интернет сайты, интегрированные с внешними данными.

По окончанию вы будете уметь:

- Использовать объектно-ориентированное программирование в PHP
- Использовать базы данных SQLite
- Использовать SimpleXML и DOM разбор XML документов в PHP
- Использовать XSLT преобразования в PHP
- Создавать и использовать XML Web сервисы с помощью протоколов SOAP и XML-RPC
- Использовать сокеты
- Использовать графический модуль GD2

Программа курса:

Модуль 1. Объектно-ориентированное программирование на PHP
ООП в PHP - введение
Классы
Свойства и методы
Конструкторы и деструкторы
Клонирование объектов
Наследование
Перегрузка методов
Методы доступа к свойствам и методам
Обработка исключений
Константы класса
Абстрактные классы и методы
Интерфейсы
Финальные классы и методы
Статические свойства и методы класса
"Магические методы"
Уточнение типа (type-hint)
Типажи (traits)
Другие полезные мелочи
Лабораторные работы
Модуль 2. Практическое использование ООП с базой данных SQLite
Введение в SQLite
Преимущества и ограничения SQLite
Особенности SQLite
Выполнение основных операций работы с SQLite :
создание базы и таблиц,
вставка, обновление, удаление
выборка данных
Лабораторные работы
Модуль 3. PHP и XML
Введение в XML
Обзор возможностей по работе PHP с технологией XML
SAX
DOM
SimpleXML
XMLReader и XMLWriter
Обзор XSL/T
Преобразование данных на сервере
Лабораторные работы
Модуль 4. PHP и XML Web-services
Введение в XML Web-services
Обзор RPC
Обзор SOAP
Использование расширения SOAP
Использование WSDL
Обзор XML-RPC
Использование расширения XML-RPC
Использование контекста потока
Лабораторные работы
Модуль 5. Сокеты и сетевые функции
Соединение с удаленными узлами через сокеты
Сетевые функции
Лабораторная работа
Модуль 6. Работа с графикой
Введение в графические форматы
Вопросы генерации графики на PHP 5
Использование расширения GD2
Базовые функции для работы с графикой
Лабораторная работа
Примечание: при необходимости, преподаватель может дать в начале курса 10-минутное тестовое задание.

Дополнительно:

Добавлены исходные материалы "Специалист. PHP. Уровень 2. Разработка web - сайтов и взаимодействие с MySQL ", которые небыли включены в Уровень 2.

MI:

Видео
Идентификатор : 1
Формат : AVC
Формат/Информация : Advanced Video Codec
Профиль формата : [url=mailto:High@L3.1]High@L3.1[/url]
Параметр CABAC формата : Да
Параметр ReFrames формата : 4 кадра
Параметр GOP формата : M=1, N=75
Идентификатор кодека : avc1
Идентификатор кодека/Информация : Advanced Video Coding
Вид битрейта : Переменный
Битрейт : 393 Кбит/сек
Ширина : 1024 пикселя
Высота : 768 пикселей
Соотношение сторон : 4:3
Режим частоты кадров : Постоянный
Частота кадров : 15,000 кадров/сек
Цветовое пространство : YUV
Субдискретизация насыщенности : 4:2:0
Битовая глубина : 8 бит
Тип развёртки : Прогрессивная
Бит/(Пиксели*Кадры) : 0.033
Размер потока : 380 Мбайт (88%)
Размер потока оригинала : 380 Мбайт (88%)
Язык : English
Дата кодирования : UTC 2013-06-13 02:45:30
Дата пометки : UTC 2013-06-13 02:45:30
mdhd_Duration : 8122558
Основные цвета : BT.709
Характеристики трансфера : BT.709
Коэффициенты матрицы : BT.709
Аудио
Идентификатор : 2
Формат : AAC
Формат/Информация : Advanced Audio Codec
Профиль формата : LC
Идентификатор кодека : 40
Вид битрейта : Постоянный
Битрейт : 53,4 Кбит/сек
Каналы : 2 канала
Расположение каналов : Front: L R
Частота : 44,1 КГц
Метод сжатия : С потерями
Размер потока : 51,8 Мбайт (12%)
Размер потока оригинала : 51,8 Мбайт (12%)
Язык : English
Дата кодирования : UTC 2013-06-13 02:45:30
Дата пометки : UTC 2013-06-13 02:45:30
mdhd_Duration : 8143220
Скачать .torrent

Для того, чтобы скачать торрент-файл

И.О.Борисов | Специалист - PHP. Уровень 3. Профессиональная разработка на PHP5 (2013)

с нашего сайта, Вам необходимо Войти на сайт под своим логином! Если у Вас ещё нет логина, тогда Вам нужно сначала Зарегистрироваться!

Как скачивать? · Что такое торрент? · Рейтинг и ограничения

Показать сообщения:    
Ответить на тему

И.О.Борисов | Специалист - PHP. Уровень 3. Профессиональная разработка на PHP5 (2013) скачать торрент (torrent), видеоуроки, тренинги, обучающее видео и видеокурсы

Текущее время: Сегодня 00:19

Часовой пояс: GMT + 4



Вы не можете начинать темы
Вы не можете отвечать на сообщения
Вы не можете редактировать свои сообщения
Вы не можете удалять свои сообщения
Вы не можете голосовать в опросах
Вы не можете прикреплять файлы к сообщениям
Вы не можете скачивать файлы