И.О.Борисов | Специалист - PHP. Уровень 2. Разработка web - сайтов и взаимодействие с MySQL (2013)

Ответить на тему
 
Автор Сообщение

Yulya ®

-И.О.Борисов | Специалист - PHP. Уровень 2. Разработка web - сайтов и взаимодействие с MySQL (2013)- Автор (режиссер): И.О.Борисов
Название: Специалист. PHP. Уровень 2. Разработка web - сайтов и взаимодействие с MySQL
Год выпуска: 2013
Жанр: Обучающие видеокурсы
Качество видео: PCRec
Продолжительность: 13:11:39
Видеокодек: AVC
Битрейт видео: ~388 Кбит/сек
Размер кадра: 1024х768
Аудиокодек: AAC
Битрейт аудио: 53,3 Кбит/сек
Описание:
На этом курсе слушатели продолжают знакомится с PHP, и этот курс охватывает все необходимые темы для создания сложных сайтов: управление сессиями пользователя и файловой системой, работа с базами данных, работа с протоколом HTTP.
Данный курс является рекомендованным курсом в цепочке подготовки Веб-мастера к получению сертификации ZCE (Zend Certified Engineer).
Курс рекомендован слушателям, имеющим начальный опыт использования PHP, и желающим расширить свои знания и опыт.
На курсе рассматриваются наиболее свежие версии PHP
Курс рекомендован слушателям, имеющим начальный опыт использования PHP, и желающим расширить свои знания и опыт.

По окончанию вы будете уметь:

- Использовать особенности куки и заголовки HTTP для управления браузером
- Управлять сессиями пользователя
- Работать с файловой системой
- Устанавливать и настраивать для работы с PHP сервер MySQL
- Использовать различные модули для работы с сервером MySQL
- Создавать эффективные и быстрые сайты, использующие сервер MySQL

Программа курса:

Модуль 1. Cookie
Что такое Cookie?
Параметры cookie
Типы cookie
Временные
Постоянные
Создание cookie
Чтение cookie
Удаление cookie
Сохранение массивов в cookie
Лабораторная работа
Модуль 2. HTTP-заголовки ответа сервера
Метод HEAD
Заголовки ответа сервера
Переадресация (Location)
Перезапрос ресурса (Refresh)
Установка типа содержимого (Content-Type)
Управление кэшированием (Cache-Control, Expires)
Буферизация
Хэширование
HTTP-аутентификация
Модуль 3. Сессии
Что такое сессия?
Создание сессии
Чтение сессии
Удаление сессии
Параметры сессии
Лабораторная работа
Модуль 4. Работа с файловой системой
Функции для работы с файлами
Режимы работы
Чтение и запись
Работа с курсором
Прямая работа с файлами
Запирание файлов
Функции для работы с директориями
Загрузка файлов на сервер по HTTP
Лабораторная работа
Модуль 5. Как отправить email?
Настройки для работы с почтой
Принципы работы с почтой
Параметры
Лабораторная работа
Модуль 6. Основы работы с базами данных
Общие сведения о базах данных
Требования к структуре базы данных
Реляционная СУБД
Нормализация
Общие сведения о SQL
SELECT
INSERT
DELETE
UPDATE
Создание базы данных и таблицы
Модуль 7. Сервер баз данных MySQL
Общие сведения о сервере баз данных MySQL
Установка сервера баз данных MySQL
Конфигурация сервера баз данных MySQL
Программы для работы с сервером баз данных MySQL
Использование утилит командной строки
Экспорт и импорт баз данных
Лабораторная работа
Модуль 8. Использование сервера баз данных MySQL в приложениях PHP
Расширение MySQLi
Соединение с сервером баз данных MySQL
Выбор базы данных
Исполнение запроса
Получение результата запроса
Полезные функции
Опасность SQL-иньекций
Подготовленные запросы
Обзор расширения MySQL (обзорно)
Лабораторная работа
Модуль 9. Практическая работа: создание интернет-магазина
Создание базы данных
Создание каталога товаров
Выборка товаров из каталога
Создание корзины пользователя
Выборка товаров из корзины пользователя
Удаление товаров из корзины пользователя
Формирование заказа
Выборка заказов
Повышение безопасности (если останется время)
Примечание.
При необходимости, преподаватель может дать в начале курса 10-минутное тестовое задание

MI:

Видео
Идентификатор : 1
Формат : AVC
Формат/Информация : Advanced Video Codec
Профиль формата : [url=mailto:High@L3.1]High@L3.1[/url]
Параметр CABAC формата : Да
Параметр ReFrames формата : 4 кадра
Идентификатор кодека : avc1
Идентификатор кодека/Информация : Advanced Video Coding
Вид битрейта : Переменный
Битрейт : 388 Кбит/сек
Ширина : 1024 пикселя
Высота : 768 пикселей
Соотношение сторон : 4:3
Режим частоты кадров : Постоянный
Частота кадров : 15,000 кадров/сек
Цветовое пространство : YUV
Субдискретизация насыщенности : 4:2:0
Битовая глубина : 8 бит
Тип развёртки : Прогрессивная
Бит/(Пиксели*Кадры) : 0.033
Размер потока : 406 Мбайт (87%)
Размер потока оригинала : 406 Мбайт (87%)
Язык : English
Дата кодирования : UTC 2013-05-31 04:31:23
Дата пометки : UTC 2013-05-31 04:31:23
mdhd_Duration : 8810038
Основные цвета : BT.709
Характеристики трансфера : BT.709
Коэффициенты матрицы : BT.709
Аудио
Идентификатор : 2
Формат : AAC
Формат/Информация : Advanced Audio Codec
Профиль формата : LC
Идентификатор кодека : 40
Вид битрейта : Постоянный
Битрейт : 53,3 Кбит/сек
Каналы : 2 канала
Расположение каналов : Front: L R
Частота : 44,1 КГц
Метод сжатия : С потерями
Размер потока : 56,2 Мбайт (12%)
Размер потока оригинала : 56,2 Мбайт (12%)
Язык : English
Дата кодирования : UTC 2013-05-31 04:31:23
Дата пометки : UTC 2013-05-31 04:31:23
mdhd_Duration : 8839313
Скачать .torrent

Для того, чтобы скачать торрент-файл

И.О.Борисов | Специалист - PHP. Уровень 2. Разработка web - сайтов и взаимодействие с MySQL (2013)

с нашего сайта, Вам необходимо Войти на сайт под своим логином! Если у Вас ещё нет логина, тогда Вам нужно сначала Зарегистрироваться!

Как скачивать? · Что такое торрент? · Рейтинг и ограничения

Показать сообщения:    
Ответить на тему

И.О.Борисов | Специалист - PHP. Уровень 2. Разработка web - сайтов и взаимодействие с MySQL (2013) скачать торрент (torrent), видеоуроки, тренинги, обучающее видео и видеокурсы

Текущее время: Сегодня 08:40

Часовой пояс: GMT + 4



Вы не можете начинать темы
Вы не можете отвечать на сообщения
Вы не можете редактировать свои сообщения
Вы не можете удалять свои сообщения
Вы не можете голосовать в опросах
Вы не можете прикреплять файлы к сообщениям
Вы не можете скачивать файлы