RusTuts.com - Визуальное сведение и мастеринг (2013)

Ответить на тему
 
Автор Сообщение

Yulya ®

-RusTuts.com - Визуальное сведение и мастеринг (2013)- Автор (режиссер): RusTuts.com
Жанр: Работа со звуком
Язык: Русский
Продолжительность: 02:02:57
Качество видео: PCRec
Видеокодек: AVC/H.264
Битрейт видео: ~1363 Кбит/сек, 25,000 кадров/сек
Размер кадра: 1280x720, 16:9
Аудиокодек: AAC
Битрейт аудио: 205 Кбит/сек, 2 канала, 44,1 КГц
Описание: В идеальной ситуации, ваши золотые уши, прислушивающиеся к звуку с пристальным вниманием, через идеальные мониторы в акустически совершенном помещении, могут и не нуждаться в инструментах анализа звука, но, к сожалению, большинство из нас не могут себе этого позволить. Если Вы не используете аудиоанализаторы, то играете в прятки со звуком, потому что он может легко одурачить вас!

Содержание:

Раздел 1. Война за громкость. Громкий динамичный микс.
1.Мониторинг динамических обработок
2.Крест фактор. Новый взгляд на динамику звука.
3.Что такое пампинг?
4.Нормализация по громкости
5.Как добиться нужной громкости микса?
Раздел 2. MidSide техника. Широкий и глубокий микс.
1.Когда есть сомнения куда расположить инструмент
2.Фигуры Лиссажу и моносовместимость
3.LCR панорамирование
4.Как добиться требуемой широты микса?
Раздел 3. Спектральный баланс. Громкий и прозрачный микс.
1.М-S мониторинг спектрального баланса
2.Работа со спектральными процессами
3.Режим критических полос спектрального анализатора
4.Как добиться правильного спектрального баланса?
Раздел 4. Творческое использование анализаторов
1. Как узнать тональные характеристики плагинов?
2. Как узнать, что теряется в mp3?
3. Заключение.

MediaInfo:

Общее
Полное имя : E:\TORRENTS.RU\RusTuts.com - Визуальное сведение и мастеринг\video\000\001.mp4
Формат : MPEG-4
Профиль формата : Base Media / Version 2
Идентификатор кодека : mp42
Размер файла : 12,7 Мбайт
Продолжительность : 1 м. 7 с.
Режим общего битрейта : Переменный
Общий поток : 1571 Кбит/сек
Дата кодирования : UTC 2013-04-16 06:42:48
Дата пометки : UTC 2013-04-16 06:42:48
Видео
Идентификатор : 1
Формат : AVC
Формат/Информация : Advanced Video Codec
Профиль формата : [url=mailto:High@L3.1]High@L3.1[/url]
Параметр CABAC формата : Да
Параметр ReFrames формата : 4 кадра
Идентификатор кодека : avc1
Идентификатор кодека/Информация : Advanced Video Coding
Продолжительность : 1 м. 7 с.
Продолжительность оригинала : 1 м. 7 с.
Вид битрейта : Переменный
Битрейт : 1363 Кбит/сек
Максимальный битрейт : 2662 Кбит/сек
Ширина : 1280 пикселей
Высота : 720 пикселей
Соотношение сторон : 16:9
Режим частоты кадров : Постоянный
Частота кадров : 25,000 кадров/сек
Стандарт вещания : PAL
Цветовое пространство : YUV
Субдискретизация насыщенности : 4:2:0
Битовая глубина : 8 бит
Тип развёртки : Прогрессивная
Бит/(Пиксели*Кадры) : 0.059
Размер потока : 11,0 Мбайт (87%)
Размер потока оригинала : 11,0 Мбайт (87%)
Язык : English
Дата кодирования : UTC 2013-04-16 06:42:48
Дата пометки : UTC 2013-04-16 06:42:48
mdhd_Duration : 67801
Основные цвета : BT.709
Характеристики трансфера : BT.709
Коэффициенты матрицы : BT.709
Аудио
Идентификатор : 2
Формат : AAC
Формат/Информация : Advanced Audio Codec
Профиль формата : LC
Идентификатор кодека : 40
Продолжительность : 1 м. 7 с.
Продолжительность оригинала : 1 м. 7 с.
Вид битрейта : Постоянный
Битрейт : 205 Кбит/сек
Каналы : 2 канала
Расположение каналов : Front: L R
Частота : 44,1 КГц
Метод сжатия : С потерями
Размер потока : 1,66 Мбайт (13%)
Размер потока оригинала : 1,66 Мбайт (13%)
Язык : English
Дата кодирования : UTC 2013-04-16 06:42:48
Дата пометки : UTC 2013-04-16 06:42:48
mdhd_Duration : 67802
Скриншоты:
Скачать .torrent

Для того, чтобы скачать торрент-файл

RusTuts.com - Визуальное сведение и мастеринг (2013)

с нашего сайта, Вам необходимо Войти на сайт под своим логином! Если у Вас ещё нет логина, тогда Вам нужно сначала Зарегистрироваться!

Как скачивать? · Что такое торрент? · Рейтинг и ограничения

younger

посидируйте, пожалуйста
Показать сообщения:    
Ответить на тему

RusTuts.com - Визуальное сведение и мастеринг (2013) скачать торрент (torrent), видеоуроки, тренинги, обучающее видео и видеокурсы

Текущее время: Сегодня 16:11

Часовой пояс: GMT + 4



Вы не можете начинать темы
Вы не можете отвечать на сообщения
Вы не можете редактировать свои сообщения
Вы не можете удалять свои сообщения
Вы не можете голосовать в опросах
Вы не можете прикреплять файлы к сообщениям
Вы не можете скачивать файлы