Андрей Журавлев - Мастер-класс — Повышение резкости (2014)

Ответить на тему
 
Автор Сообщение

Yulya ®

-Андрей Журавлев - Мастер-класс — Повышение резкости (2014)- Автор (режиссер): Андрей Журавлев
Жанр: Обучающие видео-уроки
Продолжительность: 03:33:12
Качество видео: PCRec
Видеокодек: MPEG-4
Битрейт видео: ~293 kb/s
Размер кадра: 1232x768
Аудиокодек: AAC
Битрейт аудио: 152 kb/s, 2 Ch
Доп. материалы: Есть
Описание:
Повышение резкости как велосипед: придумано огромное количество конструкций, бери и пользуйся, но каждый пытается сконструировать что-то свое. При этом ехать можно на любом велосипеде, главное научиться это делать.
Мы рассмотрим почему необходимо повышать резкость. Какие принципы лежат в основе такого повышения. Какие существуют приемы повышения резкости и каким они приводят проблемам. И, конечно, как эти проблемы побороть.

Об авторе:

Андрей Журавлев – один из лучших специалистов России по цветокоррекции и допечатной подготовке. Его глубокие знания в Adobe Photoshop, удивительное умение объяснить сложные вещи простым и понятным языком создали для Андрея уникальные преимущества. "Замечательный преподаватель", "Настоящий профессионал" и даже "Маргулис всея Руси" – это одни из многих ярких эпитетов наших учащихся с которыми они остаются после обучения у Андрея. Учащиеся ценят его умение показать проблему под новым ракурсом, и затем разложить ее решение, сдабривая рассказ искромётным юмором. А ведь смех, как ничто иное, снимает напряжение от длительной умственной работы и способствует лучшему восприятию обширного материала.

MediaInfo:

Код:
Общее
Полное имя                               : C:\Андрей Журавлев - Повышение резкости - 2014\Видео.mp4
Формат                                   : MPEG-4
Профиль формата                          : Base Media
Идентификатор кодека                     : isom
Размер файла                             : 686 Мбайт
Продолжительность                        : 3 ч. 33 м.
Режим общего битрейта                    : Переменный
Общий поток                              : 450 Кбит/сек
Дата кодирования                         : UTC 1970-01-01 00:00:00
Дата пометки                             : UTC 1970-01-01 00:00:00
Программа кодирования                    : AVM.EXE
Видео
Идентификатор                            : 1
Формат                                   : MPEG-4 Visual
Профиль формата                          : Simple@L1
Параметр BVOP формата                    : Нет
Параметр QPel формата                    : Нет
Параметр GMC формата                     : Без точки перехода
Параметр матрицы формата                 : Default (H.263)
Идентификатор кодека                     : 20
Продолжительность                        : 3 ч. 33 м.
Битрейт                                  : 293 Кбит/сек
Ширина                                   : 1232 пикселя
Высота                                   : 768 пикселей
Соотношение сторон                       : 16:10
Режим частоты кадров                     : Постоянный
Частота кадров                           : 25,000 кадров/сек
Цветовое пространство                    : YUV
Субдискретизация насыщенности            : 4:2:0
Битовая глубина                          : 8 бит
Тип развёртки                            : Прогрессивная
Метод сжатия                             : С потерями
Бит/(Пиксели*Кадры)                      : 0.012
Размер потока                            : 448 Мбайт (65%)
Библиотека кодирования                   : Lavc52.72.2
Дата кодирования                         : UTC 1970-01-01 00:00:00
Дата пометки                             : UTC 1970-01-01 00:00:00
Аудио
Идентификатор                            : 2
Формат                                   : AAC
Формат/Информация                        : Advanced Audio Codec
Профиль формата                          : LC
Идентификатор кодека                     : 40
Продолжительность                        : 3 ч. 33 м.
Вид битрейта                             : Переменный
Битрейт                                  : 152 Кбит/сек
Каналы                                   : 2 канала
Расположение каналов                     : Front: L R
Частота                                  : 44,1 КГц
Метод сжатия                             : С потерями
Размер потока                            : 232 Мбайт (34%)
Дата кодирования                         : UTC 1970-01-01 00:00:00
Дата пометки                             : UTC 1970-01-01 00:00:00
Скриншоты:
Скачать .torrent

Для того, чтобы скачать торрент-файл

Андрей Журавлев - Мастер-класс — Повышение резкости (2014)

с нашего сайта, Вам необходимо Войти на сайт под своим логином! Если у Вас ещё нет логина, тогда Вам нужно сначала Зарегистрироваться!

Как скачивать? · Что такое торрент? · Рейтинг и ограничения

Yerzhan

Спасибо автору за релиз

Sofit2009

Спасибо!

romgen

Спасибо!
Показать сообщения:    
Ответить на тему

Андрей Журавлев - Мастер-класс — Повышение резкости (2014) скачать торрент (torrent), видеоуроки, тренинги, обучающее видео и видеокурсы

Текущее время: Сегодня 05:58

Часовой пояс: GMT + 4



Вы не можете начинать темы
Вы не можете отвечать на сообщения
Вы не можете редактировать свои сообщения
Вы не можете удалять свои сообщения
Вы не можете голосовать в опросах
Вы не можете прикреплять файлы к сообщениям
Вы не можете скачивать файлы