Арслан Ахмедов - Как сделать лендинг за 80 минут или TurboMuse 3.0 (2014)

Ответить на тему
 
Автор Сообщение

Yulya ®

-Арслан Ахмедов - Как сделать лендинг за 80 минут или TurboMuse 3.0 (2014)- Автор (режиссер): Арслан Ахмедов
Жанр: Обучающий курс
Продолжительность: 01:23:34
Качество видео: PCRec
Видеокодек: AVC
Битрейт видео: ~25fps 1213kbps
Размер кадра: 864x540
Аудиокодек: AAC
Битрейт аудио: 44100Hz stereo 108kbps
Описание:
В процессе этого полуторачасового, пошагового видео-урока вы научитесь создавать целевые страницы (Landing Page) практически в режиме реального времени без знания языков программирования.
Даже если вы совсем не знаете HTML, за полтора часа этого видео-курса вы сможете самостоятельно создать целевую страницу очень приличного качества, с помощью программы Adobe Muse.

Дополнительная информация:

Для кого предназначен мастер-класс:
Для тех, кто хочет нормально зарабатывать на создании красивых сайтов и лендингов
Для тех, кто уже делает какие-то сайты, но хочет выйти на профессиональный уровень
Для тех, кто кое-как знаком с HTML и CSS, но хочет делать сайты быстрее и проще
Для тех, кто умеет дизайнить в Photoshop, но не умеет верстать макет в HTML
Для тех, кто хочет делать красивые сайты, но не разбирается в коде (да и не нужно)
Содержание:
В первой части мы с вами разберем бизнес-модель лендингов и рассмотрим тактику привлечения и поиска ваших клиентов
Во второй я покажу вам, как делать в Adobe Muse хорошие лендинги без знаний кода или HTML, чтобы вашим клиентам нравился ваш дизайн.
Ну и в третей части я продемонстрирую вам свои секреты и фишки, такие как быстрая верстка, анимация, обработка в Photoshop и т.д.

MI

Общее
Полное имя : D:\Торренты\Как сделать лендинг за 80 минут.mp4
Формат : MPEG-4
Профиль формата : Base Media / Version 2
Идентификатор кодека : mp42
Размер файла : 793 Мбайт
Продолжительность : 1 ч. 23 м.
Режим общего битрейта : Переменный
Общий поток : 1326 Кбит/сек
Дата кодирования : UTC 2014-05-04 01:28:37
Дата пометки : UTC 2014-05-04 01:57:38
Видео
Идентификатор : 1
Формат : AVC
Формат/Информация : Advanced Video Codec
Профиль формата : [url=mailto:Main@L3.1]Main@L3.1[/url]
Параметр CABAC формата : Да
Параметр ReFrames формата : 5 кадров
Идентификатор кодека : avc1
Идентификатор кодека/Информация : Advanced Video Coding
Продолжительность : 1 ч. 23 м.
Вид битрейта : Переменный
Битрейт : 1213 Кбит/сек
Ширина : 864 пикселя
Высота : 540 пикселей
Соотношение сторон : 1,600
Режим частоты кадров : Постоянный
Частота кадров : 25,000 кадров/сек
Цветовое пространство : YUV
Субдискретизация насыщенности : 4:2:0
Битовая глубина : 8 бит
Тип развёртки : Прогрессивная
Бит/(Пиксели*Кадры) : 0.104
Размер потока : 726 Мбайт (92%)
Дата кодирования : UTC 2014-05-04 01:28:37
Дата пометки : UTC 2014-05-04 01:57:37
Основные цвета : BT.709
Характеристики трансфера : BT.709
Коэффициенты матрицы : BT.601
Аудио
Идентификатор : 2
Формат : AAC
Формат/Информация : Advanced Audio Codec
Профиль формата : LC
Идентификатор кодека : 40
Продолжительность : 1 ч. 23 м.
Вид битрейта : Переменный
Битрейт : 108 Кбит/сек
Максимальный битрейт : 233 Кбит/сек
Каналы : 2 канала
Расположение каналов : Front: L R
Частота : 44,1 КГц
Метод сжатия : С потерями
Задержка видео : 80 мс.
Размер потока : 64,8 Мбайт (8%)
Дата кодирования : UTC 2014-05-04 01:28:37
Дата пометки : UTC 2014-05-04 01:32:20
Скриншоты:
Скачать .torrent

Для того, чтобы скачать торрент-файл

Арслан Ахмедов - Как сделать лендинг за 80 минут или TurboMuse 3.0 (2014)

с нашего сайта, Вам необходимо Войти на сайт под своим логином! Если у Вас ещё нет логина, тогда Вам нужно сначала Зарегистрироваться!

Как скачивать? · Что такое торрент? · Рейтинг и ограничения

Лукаш

спасибо.

T-34

Спасибо! Просто огонь!
Показать сообщения:    
Ответить на тему

Арслан Ахмедов - Как сделать лендинг за 80 минут или TurboMuse 3.0 (2014) скачать торрент (torrent), видеоуроки, тренинги, обучающее видео и видеокурсы

Текущее время: Сегодня 06:24

Часовой пояс: GMT + 4



Вы не можете начинать темы
Вы не можете отвечать на сообщения
Вы не можете редактировать свои сообщения
Вы не можете удалять свои сообщения
Вы не можете голосовать в опросах
Вы не можете прикреплять файлы к сообщениям
Вы не можете скачивать файлы