Андрей Жуков - Работа с естественным и импульсным светом в различных условиях (2014)

Ответить на тему
 
Автор Сообщение

Yulya ®

-Андрей Жуков - Работа с естественным и импульсным светом в различных условиях (2014)- Автор (режиссер): Андрей Жуков
Жанр: Обучающие видео-уроки
Продолжительность: 01:56:48
Качество видео: PCRec
Видеокодек: AVC
Битрейт видео: ~200 kb/s
Размер кадра: 1280x650
Аудиокодек: AAC
Битрейт аудио: 147 kb/s, 2 Ch
Описание:
Как приручить естественный свет?
Отражатели и рассеиватели.
Импульсный свет - когда применять и как сочетать с собственным освещением локации.
Смешанный свет - спецэффекты.
Студийные приборы или накамерная вспышка - плюсы и минусы различной техники.
Как научиться чувствовать импульсный свет?
Типичные приёмы работы со студийным светом.

О преподавателе:

Ведущий Мастер-класса - комерческий фотограф Андрей Жуков.
Фотограф с 10-летним стажем.
Автор обзоров техники в журнале "Digital Photo".
Ведущий колонки ФотоРевю в журнале "Фотомастерская".
Директор проекта "Ателье популярной фотографии" (MarshalZhukov.ru).
Один из основателей образовательного арт-проекта "Месяц Искусств" (Artmonth.ru).
Среди клиентов Газпром-Нефть, Золотой Вавилон, Flacon, Konica, Minolta, Интер РАО ЕЭС, ЕМИАС, Abby, МосГаз, Tamron, Golden Ring, Hotel и многие другие.

MediaInfo:

Код:
Общее
Полное имя                               : C:\Жуков А. - Работа с естественным и импульсным светом в различных условиях - 2014.mp4
Формат                                   : MPEG-4
Профиль формата                          : Base Media / Version 2
Идентификатор кодека                     : mp42
Размер файла                             : 294 Мбайт
Продолжительность                        : 1 ч. 56 м.
Режим общего битрейта                    : Переменный
Общий поток                              : 352 Кбит/сек
Дата кодирования                         : UTC 2014-08-15 06:20:18
Дата пометки                             : UTC 2014-08-15 06:20:18
Видео
Идентификатор                            : 1
Формат                                   : AVC
Формат/Информация                        : Advanced Video Codec
Профиль формата                          : [url=mailto:High@L3.1]High@L3.1[/url]
Параметр CABAC формата                   : Да
Параметр ReFrames формата                : 4 кадра
Параметр GOP формата                     : M=4, N=90
Идентификатор кодека                     : avc1
Идентификатор кодека/Информация          : Advanced Video Coding
Продолжительность                        : 1 ч. 56 м.
Битрейт                                  : 200 Кбит/сек
Ширина                                   : 1280 пикселей
Высота                                   : 650 пикселей
Соотношение сторон                       : 1,969
Режим частоты кадров                     : Постоянный
Частота кадров                           : 29,970 кадров/сек
Цветовое пространство                    : YUV
Субдискретизация насыщенности            : 4:2:0
Битовая глубина                          : 8 бит
Тип развёртки                            : Прогрессивная
Бит/(Пиксели*Кадры)                      : 0.008
Размер потока                            : 167 Мбайт (57%)
Библиотека кодирования                   : x264 core 142 r2453 ea0ca51
Настройки программы                      : cabac=1 / ref=3 / deblock=1:0:0 / analyse=0x3:0x113 / me=hex / subme=7 / psy=1 / psy_rd=1.00:0.00 / mixed_ref=1 / me_range=16 / chroma_me=1 / trellis=1 / 8x8dct=1 / cqm=0 / deadzone=21,11 / fast_pskip=1 / chroma_qp_offset=-2 / threads=72 / lookahead_threads=5 / sliced_threads=0 / nr=0 / decimate=1 / interlaced=0 / bluray_compat=0 / stitchable=1 / constrained_intra=0 / bframes=3 / b_pyramid=2 / b_adapt=1 / b_bias=0 / direct=1 / weightb=1 / open_gop=0 / weightp=2 / keyint=90 / keyint_min=30 / scenecut=40 / intra_refresh=0 / rc_lookahead=40 / rc=2pass / mbtree=1 / bitrate=200 / ratetol=1.0 / qcomp=0.60 / qpmin=5 / qpmax=69 / qpstep=4 / cplxblur=20.0 / qblur=0.5 / vbv_maxrate=2750 / vbv_bufsize=7500 / nal_hrd=none / filler=0 / ip_ratio=1.40 / aq=1:1.00
Дата кодирования                         : UTC 2014-08-15 06:20:18
Дата пометки                             : UTC 2014-08-15 06:20:18
Аудио
Идентификатор                            : 2
Формат                                   : AAC
Формат/Информация                        : Advanced Audio Codec
Профиль формата                          : LC
Идентификатор кодека                     : 40
Продолжительность                        : 1 ч. 56 м.
Вид битрейта                             : Переменный
Битрейт                                  : 147 Кбит/сек
Каналы                                   : 2 канала
Расположение каналов                     : Front: L R
Частота                                  : 48,0 КГц
Метод сжатия                             : С потерями
Размер потока                            : 123 Мбайт (42%)
Дата кодирования                         : UTC 2014-08-15 06:20:18
Дата пометки                             : UTC 2014-08-15 06:20:18
Скриншоты:
Скачать .torrent

Для того, чтобы скачать торрент-файл

Андрей Жуков - Работа с естественным и импульсным светом в различных условиях (2014)

с нашего сайта, Вам необходимо Войти на сайт под своим логином! Если у Вас ещё нет логина, тогда Вам нужно сначала Зарегистрироваться!

Как скачивать? · Что такое торрент? · Рейтинг и ограничения

RichDep

Хорошая тема, будем смотреть. Спасибо за раздачу!))))
Показать сообщения:    
Ответить на тему

Андрей Жуков - Работа с естественным и импульсным светом в различных условиях (2014) скачать торрент (torrent), видеоуроки, тренинги, обучающее видео и видеокурсы

Текущее время: Сегодня 00:12

Часовой пояс: GMT + 4



Вы не можете начинать темы
Вы не можете отвечать на сообщения
Вы не можете редактировать свои сообщения
Вы не можете удалять свои сообщения
Вы не можете голосовать в опросах
Вы не можете прикреплять файлы к сообщениям
Вы не можете скачивать файлы