Специалист - Drupal. Уровень 2. Разработка модулей сайта с нуля (2012)

Ответить на тему
 
Автор Сообщение

Yulya ®

-Специалист - Drupal. Уровень 2. Разработка модулей сайта с нуля (2012)- Автор (режиссер): Специалист
Жанр: Обучающие видео-уроки
Продолжительность: 10:49:28
Качество видео: PCRec
Видеокодек: G2M4, AVI
Битрейт видео: ~465 - 1040 kb/s
Размер кадра: 1024x768, 1040x1089
Аудиокодек: WMA, PCM
Битрейт аудио: 48 - 352,8 kb/s, 1 Ch
Описание:
По окончании курса Вы будете уметь:
Писать свои собственные модули для Drupal.
Пользоваться официальным справочником по Drupal.
Писать свои темы.
Править уже существующие модули и темы.
Использовать в своих модулях систему хуков.
Объединять несколько сайтов на Drupal в одну общую систему.
Интегрировать в Drupal любые сторонние скрипты.
По окончании этого модуля слушатели смогут:
Создать свой собственный модуль для Drupal.
Написать свою тему, править уже существующие.
Использовать Drupal API и понимать принцип работы хуков.

Программа курса:

Модуль 1. Введение в Drupal API. Среда разработки модулей.
Введение в Drupal API.
Создание модуля Drupal.
Установка и настройка программной среды для разработки модулей для Drupal.
Лабораторные работы: Установка и настройка программной среды для разработки модулей для Drupal. Введение в API.
Упражнение 1: Установка среды разработки Net Beans 7.0.1. Настройка его для работы с PHP.
Упражнение 2: Создание простого модуля.
Модуль 2. Работа с Drupal API.
Form API. Создание форм на Drupal.
Field API. Поля в Drupal
Data Base API. Написание кроссплатформенных SQL запросов в Drupal.
Лабораторные работы: Создание более сложного модуля для Drupal.
Упражнение 1: Написание форм. Сложные зависимые элементы средствами Form API.
Упражнение 2: Работа с полями в Drupal.
Упражнение 3: Написание запросов к базе данных.
Модуль 3. Оформление и темизация Drupal.
Способы темизации страниц в Drupal.
Создание темы в Drupal.
Лабораторные работы: Темизация и верстка для Drupal.
Упражнение 1: Темизация шаблонов. Модуль Contemplate. Темизация Views.
Упражнение 2: Создание темы.
Модуль 4. Система хуков. Перехват событий в Drupal.
Обзор хуков, применение в своих модулях.
Лабораторные работы: Использование хуков.
Упражнение 1: Использование хуков в своих модулях.
Модуль 5. Работа с несколькими базами. Мультисайтинг.
Работа с несколькими базами в CMF Drupal.
Мультисайтинг.
Лабораторные работы: Мультисайтинг.
Упражнение 1: Работа Drupal сразу с несколькими базами данных.
Упражнение 2: Построение мультисайтинга.
Модуль 6. Создание реальных приложений в своих модулях.
Создание файлового хранилища.
Создание системы обмена информацией между сайтами.
Лабораторные работы: Создание реальных приложений на базе Drupal.
Упражнение 1: Создание файлообменника в своём модуле.
Упражнение 2: Создание системы обмена данными между двумя разными сайтам.
Модуль 7. Интеграция сторонних решений в систему Drupal.
Использование сторонних сервисов.
Интеграция готовых скриптов в Drupal.
Лабораторные работы: Интеграция в Drupal.
Упражнение 1: Внедрение сторонних сервисов в Drupal.
Упражнение 2: Интеграция в Drupal готовых решений на PHP.

MediaInfo:

Код:
Общее
Полное имя                               : C:\Специалист - Drupal. Уровень 2. Разработка модулей сайта с нуля - 2012\Drupal2_Day1.wmv
Формат                                   : Windows Media
Размер файла                             : 821 Мбайт
Продолжительность                        : 4 ч. 58 м.
Режим общего битрейта                    : Переменный
Общий поток                              : 385 Кбит/сек
Максимальный общий битрейт               : 526 Кбит/сек
Дата кодирования                         : UTC 2012-12-16 13:11:08.414
Видео
Идентификатор                            : 3
Формат                                   : G2M4
Идентификатор кодека                     : G2M4
Продолжительность                        : 4 ч. 58 м.
Вид битрейта                             : Переменный
Битрейт                                  : 465 Кбит/сек
Ширина                                   : 1024 пикселя
Высота                                   : 768 пикселей
Соотношение сторон                       : 4:3
Частота кадров                           : 29,970 кадров/сек
Битовая глубина                          : 8 бит
Бит/(Пиксели*Кадры)                      : 0.020
Размер потока                            : 993 Мбайт
Аудио
Идентификатор                            : 1
Формат                                   : WMA
Версия формата                           : Version 2
Идентификатор кодека                     : 161
Идентификатор кодека/Информация          : Windows Media Audio
Продолжительность                        : 4 ч. 58 м.
Вид битрейта                             : Постоянный
Битрейт                                  : 48,0 Кбит/сек
Каналы                                   : 1 канал
Частота                                  : 44,1 КГц
Битовая глубина                          : 16 бит
Размер потока                            : 103 Мбайт (12%)
Код:
Общее
Полное имя                               : C:\Специалист - Drupal. Уровень 2. Разработка модулей сайта с нуля - 2012\Drupal2_Day3_3.avi
Формат                                   : AVI
Формат/Информация                        : Audio Video Interleave
Размер файла                             : 641 Мбайт
Продолжительность                        : 1 ч. 4 м.
Общий поток                              : 1397 Кбит/сек
Видео
Идентификатор                            : 0
Формат                                   : TechSmith
Идентификатор кодека                     : tscc
Идентификатор кодека/Информация          : TechSmith Screen Capture
Продолжительность                        : 1 ч. 4 м.
Битрейт                                  : 1040 Кбит/сек
Ширина                                   : 1089 пикселей
Высота                                   : 815 пикселей
Соотношение сторон                       : 4:3
Частота кадров                           : 15,000 кадров/сек
Бит/(Пиксели*Кадры)                      : 0.078
Размер потока                            : 477 Мбайт (74%)
Аудио
Идентификатор                            : 1
Формат                                   : PCM
Параметр Endianness формата              : Little
Параметр Sign формата                    : Signed
Идентификатор кодека                     : 1
Продолжительность                        : 1 ч. 4 м.
Вид битрейта                             : Постоянный
Битрейт                                  : 352,8 Кбит/сек
Каналы                                   : 1 канал
Частота                                  : 22,05 КГц
Битовая глубина                          : 16 бит
Размер потока                            : 162 Мбайт (25%)
Выравнивание                             : Соединение по промежуткам
Продолжительность промежутка             : 1000  мс. (15,00 видеокадров)
Время предзагрузки промежутка            : 749  мс.
Скриншоты:
Скачать .torrent

Для того, чтобы скачать торрент-файл

Специалист - Drupal. Уровень 2. Разработка модулей сайта с нуля (2012)

с нашего сайта, Вам необходимо Войти на сайт под своим логином! Если у Вас ещё нет логина, тогда Вам нужно сначала Зарегистрироваться!

Как скачивать? · Что такое торрент? · Рейтинг и ограничения

Arakanr

Огромное спасибо за курс! :)
Показать сообщения:    
Ответить на тему

Специалист - Drupal. Уровень 2. Разработка модулей сайта с нуля (2012) скачать торрент (torrent), видеоуроки, тренинги, обучающее видео и видеокурсы

Текущее время: Сегодня 21:13

Часовой пояс: GMT + 4



Вы не можете начинать темы
Вы не можете отвечать на сообщения
Вы не можете редактировать свои сообщения
Вы не можете удалять свои сообщения
Вы не можете голосовать в опросах
Вы не можете прикреплять файлы к сообщениям
Вы не можете скачивать файлы