Владислав Татаровский - Одностраничный интернет-магазин (2013)

Ответить на тему
 
Автор Сообщение

Yulya ®

-Владислав Татаровский - Одностраничный интернет-магазин (2013)- Автор (режиссер): Владислав Татаровский
Название: Одностраничный интернет-магазин
Год выпуска: 2013
Жанр: Бизнес
Продолжительность: 05:21:49
Качество видео: PCRec
Видеокодек: TSCC
Битрейт видео: ~15fps 765kbps
Размер кадра: 1280x720
Аудиокодек: MP3
Битрейт аудио: 44100Hz mono 320kbps
Описание:
Тренинг состоит из практических видео-уроков с домашними заданиями, а так же из записей живых-онлайн семинаров, изучив которые, вы обнаружите, что являетесь владельцем своего интернет-магазина. В тренинге самым подробным образом рассмотрены все организационные, психологические и технические моменты создания интернет-магазина (выбор товара, создание сайта, диалог с покупателями и многое другое...), поэтому его общая продолжительность составляет более 5 часов!

Дополнительная информация:

Для кого этот тренинг?
Если у вас нет больших денег, но есть жгучее желание открыть свой интернет-магазин и начать получать прибыль уже через несколько дней - то этот тренинг именно для вас!
Кому противопоказан данный тренинг?
Если вы привыкли ждать чуда и винить государство в том, что вы всё ещё находитесь "в жопе", то мой тренинг уж точно не для вас! Не ждите халявы, её не будет! Я работаю лишь с людьми, которые готовы что - то делать для достижения результата. Если вы не готовы учиться и внедрять новые знания, то мой тренинг не для вас!
Программа обучения
1 урок - Выбор и тестирование товара
2 урок - Создание сайта
3 урок - Регистрация домена
4 урок - Подключение системы сбора заказов
5 урок - Создание и настройка рекламной компании
6 урок - Поиск поставщиков и взаимодействие с ними
7 урок - Приём и обработка заказов
8 урок - Аналитика, как метод увеличения продаж
9 урок - Апселлы/кросселы или как увеличить средний чек
А так же 3 записи онлайн-семинаров с подробным разбором домашних заданий и ответами на вопросы.

MI

Полное имя : D:\Андрей\Одностраничный интернет-магазин
Формат : AVI
Формат/Информация : Audio Video Interleave
Общий поток : 1091 Кбит/сек
Видео
Идентификатор : 0
Формат : TechSmith
Идентификатор кодека : tscc
Идентификатор кодека/Информация : TechSmith Screen Capture
Битрейт : 765 Кбит/сек
Ширина : 1280 пикселей
Высота : 720 пикселей
Соотношение сторон : 16:9
Частота кадров : 15,000 кадров/сек
Бит/(Пиксели*Кадры) : 0.055
Размер потока : 57,6 Мбайт (70%)
Аудио
Идентификатор : 1
Формат : MPEG Audio
Версия формата : Version 1
Профиль формата : Layer 3
Идентификатор кодека : 55
Идентификатор кодека/Подсказка : MP3
Вид битрейта : Постоянный
Битрейт : 320 Кбит/сек
Каналы : 1 канал
Частота : 44,1 КГц
Метод сжатия : С потерями
Размер потока : 24,1 Мбайт (29%)
Выравнивание : Разделение по промежуткам
Продолжительность промежутка : 998 мс. (14,97 видеокадров)
Время предзагрузки промежутка : 750 мс.
Библиотека кодирования : LAME3.97 (beta)
Скриншоты:
Скачать .torrent

Для того, чтобы скачать торрент-файл

Владислав Татаровский - Одностраничный интернет-магазин (2013)

с нашего сайта, Вам необходимо Войти на сайт под своим логином! Если у Вас ещё нет логина, тогда Вам нужно сначала Зарегистрироваться!

Как скачивать? · Что такое торрент? · Рейтинг и ограничения

Toshka0001

Старенькие не актуальные по сути курсы развития!
Показать сообщения:    
Ответить на тему

Владислав Татаровский - Одностраничный интернет-магазин (2013) скачать торрент (torrent), видеоуроки, тренинги, обучающее видео и видеокурсы

Текущее время: Сегодня 00:05

Часовой пояс: GMT + 4



Вы не можете начинать темы
Вы не можете отвечать на сообщения
Вы не можете редактировать свои сообщения
Вы не можете удалять свои сообщения
Вы не можете голосовать в опросах
Вы не можете прикреплять файлы к сообщениям
Вы не можете скачивать файлы