Михаил Антончик - НЛП Практик (2014)

Ответить на тему
 
Автор Сообщение

Yulya ®

Михаил Антончик | НЛП Практик (2014) DVDRip [H.264]- Автор (режиссер): Михаил Антончик
Жанр: Психология, Гипноз, НЛП
Описание:
Для кого предназначен этот курс?
- Для бизнесменов, менеджеров, руководителей любого уровня, рекламных агентов, консультантов и других специалистов, для которых коммуникация является важнейшей составляющей их деятельности
- Для всех людей, заинтересованных в личностном развитии, более эффективном использовании имеющихся ресурсов и открытии в себе новых возможностей
- Для психологов, психотерапевтов и врачей любых специализаций
Продолжительность: 23:41:20
Качество видео: DVDRip
Видео: AVC/H.264, 640x640, ~516 Kbps
Аудио: AAC, 2 ch, 96 Kbps

MediaInfo:

Формат                                   : MPEG-4
Профиль формата : Base Media
Идентификатор кодека : isom (isom/iso2/avc1/mp41)
Общий поток : 620 Кбит/сек
Видео
Идентификатор : 1
Формат : AVC
Формат/Информация : Advanced Video Codec
Профиль формата : High@L3
Настройки формата : CABAC / 4 Ref Frames
Параметр CABAC формата : Да
Параметр RefFrames формата : 4 кадра
Идентификатор кодека : avc1
Идентификатор кодека/Информация : Advanced Video Coding
Битрейт : 516 Кбит/сек
Ширина : 640 пикселей
Высота : 480 пикселей
Соотношение сторон : 4:3
Режим частоты кадров : Постоянный
Частота кадров : 25,000 кадров/сек
Цветовое пространство : YUV
Субдискретизация насыщенности : 4:2:0
Битовая глубина : 8 бит
Тип развёртки : Прогрессивная
Бит/(Пиксели*Кадры) : 0.067
Размер потока : 637 Мбайт (83%)
Библиотека кодирования : x264 core 155 r2901M 7d0ff22
Настройки программы : cabac=1 / ref=3 / deblock=1:0:0 / analyse=0x3:0x133 / me=hex / subme=7 / psy=1 / psy_rd=1.00:0.20 / mixed_ref=1 / me_range=16 / chroma_me=1 / trellis=1 / 8x8dct=1 / cqm=0 / deadzone=21,11 / fast_pskip=1 / chroma_qp_offset=-3 / threads=13 / lookahead_threads=2 / sliced_threads=0 / nr=0 / decimate=1 / interlaced=0 / bluray_compat=0 / constrained_intra=0 / bframes=3 / b_pyramid=2 / b_adapt=2 / b_bias=0 / direct=3 / weightb=1 / open_gop=0 / weightp=2 / keyint=250 / keyint_min=3 / scenecut=40 / intra_refresh=0 / rc_lookahead=40 / rc=crf / mbtree=1 / crf=20.0 / qcomp=0.60 / qpmin=0 / qpmax=69 / qpstep=4 / ip_ratio=1.40 / aq=1:1.00
Codec configuration box : avcC
Аудио
Идентификатор : 2
Формат : AAC LC
Формат/Информация : Advanced Audio Codec Low Complexity
Идентификатор кодека : mp4a-40-2
Вид битрейта : Постоянный
Битрейт : 96,0 Кбит/сек
Каналы : 2 канала
ChannelLayout : L R
Частота : 48,0 КГц
Частота кадров : 46,875 кадров/сек (1024 SPF)
Метод сжатия : С потерями
Размер потока : 119 Мбайт (15%)
Язык : Russian
Default : Да
AlternateGroup/String : 1

О чем будет этот курс?

О том,
- как мы общаемся с другими людьми и как это делать более эффективно и успешно
- какую часть информации мы воспринимаем из окружающего мира, и как научиться воспринимать ту огромную часть информации, которую мы не воспринимаем.
- какие стратегии мы используем для достижения поставленных целей, почему мы иногда не достигаем своих целей, и как формировать новые, более успешные стратегии.
- как управлять конфликтами и извлекать из них пользу
- как получать доступ к внутренним ресурсам и преодолевать вредные привычки, избавляться от страхов, навязчивостей, внутренних противоречий, тревожащих воспоминаний и всего того, что мешает двигаться вперед
- как создавать образ привлекательного будущего и двигаться к нему
- как становиться более значимым в глазах окружающих и не вербально влиять на ход коммуникации
- как устроено понятие "времени" внутри нас и как влиять на собственное восприятие времени, сужая или расширяя его рамки
- и еще о многом другом

Что входит в курс:

I модуль. Основы коммуникации
II модуль. Якоря
II модуль. Субмодальности
III модуль. Работа с целями
IV модуль. Мета-модель
IV модуль. Модель Милтона Эриксона
V модуль. Модели НЛП
VI модуль. Техники НЛП
VII модуль. Фокусы языка
Подробнее:
http://www.nlp.md/programs/praktik.shtml
Скриншоты:
Скачать .torrent

Для того, чтобы скачать торрент-файл

Михаил Антончик - НЛП Практик (2014)

с нашего сайта, Вам необходимо Войти на сайт под своим логином! Если у Вас ещё нет логина, тогда Вам нужно сначала Зарегистрироваться!

Как скачивать? · Что такое торрент? · Рейтинг и ограничения

Показать сообщения:    
Ответить на тему

Михаил Антончик - НЛП Практик (2014) скачать торрент (torrent), видеоуроки, тренинги, обучающее видео и видеокурсы

Текущее время: Сегодня 00:41

Часовой пояс: GMT + 4



Вы не можете начинать темы
Вы не можете отвечать на сообщения
Вы не можете редактировать свои сообщения
Вы не можете удалять свои сообщения
Вы не можете голосовать в опросах
Вы не можете прикреплять файлы к сообщениям
Вы не можете скачивать файлы