ITVDN - Онлайн курс Golang (2018)

Ответить на тему
 
Автор Сообщение

Yulya ®

ITVDN | Онлайн курс Golang (2018) PCRec [H.265] - Автор (режиссер): Денис Волков
Производство: Itvdn.com
Жанр: Программирование, front-end, web-разработка, Go, Golang
Описание:
Курс Golang он же Go состоит из 8-ми уроков, на которых учащиеся будут узнавать свойства языка и его возможности. На данном курсе учащиеся будут изучать язык на примерах, которые будут построены специально для этих уроков. Уроки призваны использовать основные понятия и функционал, не углубляясь в его особенности. После прохождения курса, Вы будете знать основные понятия языка, правильно писать код на нём, а также уметь использовать функционал, описанный в курсе.
Продолжительность: 05:52:46
Качество видео: PCRec
Видео: AVC/H.265, 1280-1920х1080-720, ~587 Kbps
Аудио: AAC, 2 ch, 196 Kbps

Mediainfo:

General
Complete name : G:\Golang_nnm-club.me\№1. ВВЕДЕНИЕ. ОСНОВНЫЕ ПОНЯТИЯ ЯЗЫКА, СТИЛЬ НАПИСАНИЯ, ПАКЕТЫ И ТИПЫ..mp4
Format : MPEG-4
Format profile : Base Media
Codec ID : isom (isom/iso2/mp41)
File size : 249 MiB
Duration : 59 min 15 s
Overall bit rate : 587 kb/s
Writing application : Lavf58.12.100
Video
ID : 1
Format : HEVC
Format/Info : High Efficiency Video Coding
Format profile : Main@L3.1@Main
Codec ID : hvc1
Codec ID/Info : High Efficiency Video Coding
Duration : 59 min 15 s
Bit rate : 386 kb/s
Width : 1 280 pixels
Height : 720 pixels
Display aspect ratio : 16:9
Frame rate mode : Constant
Frame rate : 23.976 (24000/1001) FPS
Color space : YUV
Chroma subsampling : 4:2:0
Bit depth : 8 bits
Bits/(Pixel*Frame) : 0.017
Stream size : 164 MiB (66%)
Audio
ID : 2
Format : AAC
Format/Info : Advanced Audio Codec
Format profile : LC
Codec ID : mp4a-40-2
Duration : 59 min 15 s
Bit rate mode : Constant
Bit rate : 197 kb/s
Channel(s) : 2 channels
Channel positions : Front: L R
Sampling rate : 44.1 kHz
Frame rate : 43.066 FPS (1024 SPF)
Compression mode : Lossy
Stream size : 83.3 MiB (33%)
Default : Yes
Alternate group : 1
General
Complete name : G:\Golang_nnm-club.me\№2. ПЕРВАЯ ПРОГРАММА. УТИЛИТЫ GO..mp4
Format : MPEG-4
Format profile : Base Media
Codec ID : isom (isom/iso2/avc1/mp41)
File size : 120 MiB
Duration : 19 min 49 s
Overall bit rate mode : Constant
Overall bit rate : 848 kb/s
Writing application : Lavf58.12.100
Video
ID : 1
Format : AVC
Format/Info : Advanced Video Codec
Format profile : Main@L4
Format settings : CABAC / 1 Ref Frames
Format settings, CABAC : Yes
Format settings, ReFrames : 1 frame
Format settings, GOP : M=1, N=25
Codec ID : avc1
Codec ID/Info : Advanced Video Coding
Duration : 19 min 49 s
Bit rate mode : Constant
Bit rate : 646 kb/s
Nominal bit rate : 900 kb/s
Width : 1 920 pixels
Height : 1 080 pixels
Display aspect ratio : 16:9
Frame rate mode : Constant
Frame rate : 29.970 (30000/1001) FPS
Color space : YUV
Chroma subsampling : 4:2:0
Bit depth : 8 bits
Scan type : Progressive
Bits/(Pixel*Frame) : 0.010
Stream size : 91.5 MiB (76%)
Audio
ID : 2
Format : AAC
Format/Info : Advanced Audio Codec
Format profile : LC
Codec ID : mp4a-40-2
Duration : 19 min 49 s
Bit rate mode : Constant
Bit rate : 196 kb/s
Channel(s) : 2 channels
Channel positions : Front: L R
Sampling rate : 44.1 kHz
Frame rate : 43.066 FPS (1024 SPF)
Compression mode : Lossy
Stream size : 27.8 MiB (23%)
Default : Yes
Alternate group : 1

Дополнительная информация:

Присутствуют дополнительные материалы
Скриншоты:
Скачать .torrent

Для того, чтобы скачать торрент-файл

ITVDN - Онлайн курс Golang (2018)

с нашего сайта, Вам необходимо Войти на сайт под своим логином! Если у Вас ещё нет логина, тогда Вам нужно сначала Зарегистрироваться!

Как скачивать? · Что такое торрент? · Рейтинг и ограничения

Показать сообщения:    
Ответить на тему

ITVDN - Онлайн курс Golang (2018) скачать торрент (torrent), видеоуроки, тренинги, обучающее видео и видеокурсы

Текущее время: Сегодня 09:36

Часовой пояс: GMT + 4



Вы не можете начинать темы
Вы не можете отвечать на сообщения
Вы не можете редактировать свои сообщения
Вы не можете удалять свои сообщения
Вы не можете голосовать в опросах
Вы не можете прикреплять файлы к сообщениям
Вы не можете скачивать файлы