ITVDN - Ruby Essential (2018)

Ответить на тему
 
Автор Сообщение

Yulya ®

ITVDN | Ruby Essential (2018) PCRec [H.264/720p-LQ]- Автор (режиссер): Юля Гончаренко
Производство: Itvdn.com
Жанр: Программирование, RUBY
Описание:
Видео курс Ruby Essential предназначен как для совершенных новичков в программировании, так и для начинающих специалистов, которые уже сталкивались с основами программирования в других языках и хотят познакомиться с базовыми понятиями языка Ruby. Также данный курс будет полезен для тех, кто в дальнейшем хочет углубить свои знания и начать работу в веб-разработке с фреймворком Ruby on Rails. По завершению этого курса вы сможете полностью владеть базовым уровнем языка Ruby, то есть работать с базовыми типами данных и объектов, понимать структуру алгоритмов, применять их на практике, правильно применять методы, а также писать свои собственные методы, понимать основы ООП, создавать свои классы и работать с ними, а также писать программы различного функционала.
Продолжительность: 02:32:46
Качество видео: PCRec
Видео: AVC/H.264, 1280x720, ~330 kbps
Аудио: AAC, 2 ch, 256 kbps

Mediainfo:

Complete name               : \\Ruby-Essential\1-vvedenie-v-ruby.mp4
Format : MPEG-4
Format profile : Base Media / Version 2
Codec ID : mp42 (mp42/mp41/isom/avc1)
File size : 49.0 MiB
Duration : 11 min 37 s
Overall bit rate mode : Variable
Overall bit rate : 590 kbps
Encoded date : UTC 2017-09-08 10:35:04
Tagged date : UTC 2017-09-08 10:35:04
Video
ID : 1
Format : AVC
Format/Info : Advanced Video Codec
Format profile : High@L3.2
Format settings : CABAC / 5 Ref Frames
Format settings, CABAC : Yes
Format settings, ReFrames : 5 frames
Codec ID : avc1
Codec ID/Info : Advanced Video Coding
Duration : 11 min 37 s
Bit rate : 330 kbps
Width : 1 280 pixels
Height : 720 pixels
Display aspect ratio : 16:9
Frame rate mode : Constant
Frame rate : 15.000 FPS
Color space : YUV
Chroma subsampling : 4:2:0
Bit depth : 8 bits
Scan type : Progressive
Bits/(Pixel*Frame) : 0.024
Stream size : 27.5 MiB (56%)
Writing library : x264 core 150 r10 df79067
Encoding settings : cabac=1 / ref=5 / deblock=1:0:0 / analyse=0x3:0x113 / me=hex / subme=8 / psy=1 / psy_rd=1.00:0.00 / mixed_ref=1 / me_range=16 / chroma_me=1 / trellis=2 / 8x8dct=1 / cqm=0 / deadzone=21,11 / fast_pskip=1 / chroma_qp_offset=-2 / threads=22 / lookahead_threads=3 / sliced_threads=0 / nr=0 / decimate=1 / interlaced=0 / bluray_compat=0 / stitchable=1 / constrained_intra=0 / bframes=3 / b_pyramid=2 / b_adapt=1 / b_bias=0 / direct=3 / weightb=1 / open_gop=0 / weightp=2 / keyint=infinite / keyint_min=15 / scenecut=40 / intra_refresh=0 / rc_lookahead=50 / rc=crf / mbtree=1 / crf=20.0 / qcomp=0.60 / qpmin=5 / qpmax=69 / qpstep=4 / vbv_maxrate=2750 / vbv_bufsize=7500 / crf_max=0.0 / nal_hrd=none / filler=0 / ip_ratio=1.40 / aq=1:1.00
Encoded date : UTC 2017-09-08 10:35:04
Tagged date : UTC 2017-09-08 10:35:04
Color range : Limited
Color primaries : BT.709
Transfer characteristics : BT.709
Matrix coefficients : BT.709
Audio
ID : 2
Format : AAC
Format/Info : Advanced Audio Codec
Format profile : LC
Codec ID : mp4a-40-2
Duration : 11 min 37 s
Bit rate mode : Variable
Bit rate : 256 kbps
Channel(s) : 2 channels
Channel positions : Front: L R
Sampling rate : 48.0 kHz
Frame rate : 46.875 FPS (1024 SPF)
Compression mode : Lossy
Stream size : 21.3 MiB (43%)
Encoded date : UTC 2017-09-08 10:35:04
Tagged date : UTC 2017-09-08 10:35:04

Дополнительная информация:

В раздаче имеются архивы! В них содержится дополнительные материалы.
Скриншоты:
Скачать .torrent

Для того, чтобы скачать торрент-файл

ITVDN - Ruby Essential (2018)

с нашего сайта, Вам необходимо Войти на сайт под своим логином! Если у Вас ещё нет логина, тогда Вам нужно сначала Зарегистрироваться!

Как скачивать? · Что такое торрент? · Рейтинг и ограничения

Показать сообщения:    
Ответить на тему

ITVDN - Ruby Essential (2018) скачать торрент (torrent), видеоуроки, тренинги, обучающее видео и видеокурсы

Текущее время: Сегодня 03:47

Часовой пояс: GMT + 4



Вы не можете начинать темы
Вы не можете отвечать на сообщения
Вы не можете редактировать свои сообщения
Вы не можете удалять свои сообщения
Вы не можете голосовать в опросах
Вы не можете прикреплять файлы к сообщениям
Вы не можете скачивать файлы