Itproger - Изучение Java (2018)

Ответить на тему
 
Автор Сообщение

Yulya ®

Itproger | Изучение Java (2018) PCRec [H.264/1080p-LQ] - Автор (режиссер): Гоша Дударь
Производство: Itproger
Жанр: Программирование, Java
Описание:
Курс рассчитан на новичков, которые хотят улучшить знания в Java разработке. В курсе будут рассмотрены такие темы, как: программирование на Java, создание UI дизайна приложений и добавление к ним функциональности, а также разработка программ в Android Studio под многочисленные Андроид устройства.
Продолжительность: 13:27:12
Качество видео: PCRec
Видео: AVC/H.264, 1920x1080, ~107-537 Kbps
Аудио: AAC, 2 ch, 127-131 Kbps

Mediainfo:

Общее
Полное имя : .\03 Андроид разработка\12. Доработка приложения «Список дел» и создание дизайн.mp4
Формат : MPEG-4
Профиль формата : Base Media
Идентификатор кодека : isom (isom/iso2/avc1/mp41)
Размер файла : 102 Мбайт
Продолжительность : 39 м. 45 с.
Общий поток : 360 Кбит/сек
Программа кодирования : Lavf56.40.101
Видео
Идентификатор : 1
Формат : AVC
Формат/Информация : Advanced Video Codec
Профиль формата : High@L4
Настройки формата : CABAC / 2 Ref Frames
Параметр CABAC формата : Да
Параметр RefFrames формата : 2 кадра
Идентификатор кодека : avc1
Идентификатор кодека/Информация : Advanced Video Coding
Продолжительность : 39 м. 45 с.
Duration_FirstFrame : -33 мс.
Битрейт : 224 Кбит/сек
Ширина : 1920 пикселей
Высота : 1080 пикселей
Соотношение сторон : 16:9
Режим частоты кадров : Переменный
Частота кадров : 29,970 кадров/сек
Минимальная частота кадров : 29,970 кадров/сек
Максимальная частота кадров : 30,030 кадров/сек
Цветовое пространство : YUV
Субдискретизация насыщенности : 4:2:0
Битовая глубина : 8 бит
Тип развёртки : Прогрессивная
Бит/(Пиксели*Кадры) : 0.004
Размер потока : 63,8 Мбайт (62%)
Цветовой диапазон : Limited
Основные цвета : BT.709
Характеристики трансфера : BT.709
Коэффициенты матрицы : BT.709
Codec configuration box : avcC
Аудио
Идентификатор : 2
Формат : AAC LC
Формат/Информация : Advanced Audio Codec Low Complexity
Идентификатор кодека : mp4a-40-2
Продолжительность : 39 м. 45 с.
Вид битрейта : Постоянный
Битрейт : 128 Кбит/сек
Каналы : 2 канала
Channel layout : L R
Частота : 44,1 КГц
Частота кадров : 43,066 кадра/сек (1024 SPF)
Метод сжатия : С потерями
Размер потока : 36,4 Мбайт (36%)
Default : Да
AlternateGroup/String : 1

Программа обучения:

Основы Java
#1 - Введение в язык Java. Установка IDE и JDK
#2 - Изучение синтаксиса, базовые понятия, вывод информации
#3 - Переменные, типы данных и получение данных
#4 - Условные операторы (3 типа условий)
#5 - Одномерные, многомерные и динамические массивы данных
#6 - Циклы, а также операторы в циклах
#7 - Работа с функциями, перегрузка функций
#8 - Отслеживание исключений
#9 - Запись и чтение данных из файлов
Продвинутый Java
#1 - Основы ООП. Классы, объекты, конструкторы
#2 - Наследование, полиморфизм и инкапсуляция
#3 - Абстрактные классы
#4 - Вложенные классы и анонимные классы
#5 - Интерфейсы и перечисления Enum
#6 - Работа с потоками данных
#7 - Создание калькулятора. Дизайн приложения
#8 - Делаем калькулятор функциональным
Android разработка
#1 - Установка Android Studio и настройка всего
#2 - Работа с Activity, их жизненный цикл
#3 - Всплывающие подсказки, диалоговые окна и обработчик событий
#4 - Переход между страницами в приложении
#5 - Понятие фрагмента и работа с ними
#6 - Работа с изображениями
#7 - Добавление звука в приложение. Музыкальный плеер
#8 - Создание чата для переписок
#9 - Создание дизайна приложения
#10 - Разработка игры «Викторина»
#11 - Создание TODO приложения и работа с базой данных
#12 - Доработка приложения «Напоминалка» и создание дизайн
#13 - Создание рабочего apk файла приложения

Дополнительная информация:

В раздаче имеются архивы! В них содержится дополнительные материалы.
Скриншоты:
Скачать .torrent

Для того, чтобы скачать торрент-файл

Itproger - Изучение Java (2018)

с нашего сайта, Вам необходимо Войти на сайт под своим логином! Если у Вас ещё нет логина, тогда Вам нужно сначала Зарегистрироваться!

Как скачивать? · Что такое торрент? · Рейтинг и ограничения

Показать сообщения:    
Ответить на тему

Itproger - Изучение Java (2018) скачать торрент (torrent), видеоуроки, тренинги, обучающее видео и видеокурсы

Текущее время: Сегодня 10:32

Часовой пояс: GMT + 4



Вы не можете начинать темы
Вы не можете отвечать на сообщения
Вы не можете редактировать свои сообщения
Вы не можете удалять свои сообщения
Вы не можете голосовать в опросах
Вы не можете прикреплять файлы к сообщениям
Вы не можете скачивать файлы