Itproger - Создание Андроид игры на Unity 5 (2018)

Ответить на тему
 
Автор Сообщение

Yulya ®

Itproger | Создание Андроид игры на Unity 5 (2018) PCRec [H.264/1080p-LQ] - Автор (режиссер): Гоша Дударь
Производство: Itproger
Жанр: Программирование, Unity
Описание:
В ходе видеокурса мы создадим игру, которую вы сейчас можете скачать из Google Play или же из App Store. В видеокурсе будет создана точно такая же игра, что вы скачаете и будут рассмотрены все моменты публикации и разработки игры.
Продолжительность: 07:19:24
Качество видео: PCRec
Видео: AVC/H.264, 1920x1080, ~248-1044 Kbps
Аудио: AAC, 2 ch, 125 Kbps

Mediainfo:

Общее
Полное имя : .\02 Основная сцена игры.mp4
Формат : MPEG-4
Профиль формата : Base Media
Идентификатор кодека : isom (isom/iso2/avc1/mp41)
Размер файла : 150 Мбайт
Продолжительность : 26 м. 58 с.
Общий поток : 780 Кбит/сек
Программа кодирования : Lavf56.40.101
Видео
Идентификатор : 1
Формат : AVC
Формат/Информация : Advanced Video Codec
Профиль формата : High@L4.2
Настройки формата : CABAC / 2 Ref Frames
Параметр CABAC формата : Да
Параметр RefFrames формата : 2 кадра
Идентификатор кодека : avc1
Идентификатор кодека/Информация : Advanced Video Coding
Продолжительность : 26 м. 58 с.
Битрейт : 639 Кбит/сек
Ширина : 1920 пикселей
Высота : 1080 пикселей
Соотношение сторон : 16:9
Режим частоты кадров : Переменный
Частота кадров : 59,940 (59940/1000) кадров/сек
Минимальная частота кадров : 59,920 кадров/сек
Максимальная частота кадров : 90000,000 кадров/сек
Цветовое пространство : YUV
Субдискретизация насыщенности : 4:2:0
Битовая глубина : 8 бит
Тип развёртки : Прогрессивная
Бит/(Пиксели*Кадры) : 0.005
Размер потока : 123 Мбайт (82%)
Цветовой диапазон : Limited
Основные цвета : BT.709
Характеристики трансфера : BT.709
Коэффициенты матрицы : BT.709
Codec configuration box : avcC
Аудио
Идентификатор : 2
Формат : AAC LC
Формат/Информация : Advanced Audio Codec Low Complexity
Идентификатор кодека : mp4a-40-2
Продолжительность : 26 м. 58 с.
Вид битрейта : Постоянный
Битрейт : 126 Кбит/сек
Каналы : 2 канала
Channel layout : L R
Частота : 44,1 КГц
Частота кадров : 43,066 кадра/сек (1024 SPF)
Метод сжатия : С потерями
Размер потока : 24,2 Мбайт (16%)
Default : Да
AlternateGroup/String : 1

Дополнительная информация:

В раздаче имеются архивы! В них содержится дополнительные материалы.
Скриншоты:
Скачать .torrent

Для того, чтобы скачать торрент-файл

Itproger - Создание Андроид игры на Unity 5 (2018)

с нашего сайта, Вам необходимо Войти на сайт под своим логином! Если у Вас ещё нет логина, тогда Вам нужно сначала Зарегистрироваться!

Как скачивать? · Что такое торрент? · Рейтинг и ограничения

Показать сообщения:    
Ответить на тему

Itproger - Создание Андроид игры на Unity 5 (2018) скачать торрент (torrent), видеоуроки, тренинги, обучающее видео и видеокурсы

Текущее время: Сегодня 09:18

Часовой пояс: GMT + 4



Вы не можете начинать темы
Вы не можете отвечать на сообщения
Вы не можете редактировать свои сообщения
Вы не можете удалять свои сообщения
Вы не можете голосовать в опросах
Вы не можете прикреплять файлы к сообщениям
Вы не можете скачивать файлы